<?xml version="1.0" standalone="no"?>
<!DOCTYPE svg PUBLIC "-//W3C//DTD SVG 1.1//EN" "http://www.w3.org/Graphics/SVG/1.1/DTD/svg11.dtd" >
<svg xmlns="http://www.w3.org/2000/svg">
<metadata></metadata>
<defs>
<font id="SSStandard" >
<font-face font-family="SS Standard" units-per-em="2048" ascent="2176" descent="-640" />
<missing-glyph d="M0 2048h2048v-2048h-2048v2048zM1612 1792h-1176l588 -588zM256 1612v-1176l588 588zM436 256h1176l-588 588zM1792 436v1176l-588 -588z" />
<glyph  horiz-adv-x="2048" d="M0 2048h2048v-2048h-2048v2048zM1612 1792h-1176l588 -588zM256 1612v-1176l588 588zM436 256h1176l-588 588zM1792 436v1176l-588 -588z" />
<glyph unicode="+" horiz-adv-x="2048" d="M1237 0h-426q-18 0 -30.5 12.5t-12.5 30.5v725h-725q-18 0 -30.5 12.5t-12.5 30.5v426q0 18 12.5 30.5t30.5 12.5h725v725q0 18 12.5 30.5t30.5 12.5h426q18 0 30.5 -12.5t12.5 -30.5v-725h725q18 0 30.5 -12.5t12.5 -30.5v-426q0 -18 -12.5 -30.5t-30.5 -12.5h-725v-725
q0 -18 -12.5 -30.5t-30.5 -12.5z" />
<glyph unicode="-" horiz-adv-x="2048" d="M2005 768h-1962q-18 0 -30.5 12.5t-12.5 30.5v426q0 18 12.5 30.5t30.5 12.5h1962q18 0 30.5 -12.5t12.5 -30.5v-426q0 -18 -12.5 -30.5t-30.5 -12.5z" />
<glyph unicode="&#x201c;" horiz-adv-x="2048" d="M1664 896h256q53 0 90.5 -37.5t37.5 -90.5v-512q0 -53 -37.5 -90.5t-90.5 -37.5h-640q-53 0 -90.5 37.5t-37.5 90.5v640q0 222 62 411.5t172.5 324.5t270 211.5t348.5 76.5q18 0 30.5 -12.5t12.5 -30.5v-386q0 -16 -11 -28.5t-27 -14.5q-166 -12 -256 -154.5t-90 -397.5z
M512 896h256q53 0 90.5 -37.5t37.5 -90.5v-512q0 -53 -37.5 -90.5t-90.5 -37.5h-640q-53 0 -90.5 37.5t-37.5 90.5v640q0 222 62 411.5t172.5 324.5t270 211.5t348.5 76.5q18 0 30.5 -12.5t12.5 -30.5v-386q0 -16 -11 -28.5t-27 -14.5q-166 -12 -256 -154.5t-90 -397.5z" />
<glyph unicode="&#x2026;" horiz-adv-x="2048" d="M768 1024q0 106 75 181t181 75t181 -75t75 -181t-75 -181t-181 -75t-181 75t-75 181zM0 1024q0 106 75 181t181 75t181 -75t75 -181t-75 -181t-181 -75t-181 75t-75 181zM1536 1024q0 106 75 181t181 75t181 -75t75 -181t-75 -181t-181 -75t-181 75t-75 181z" />
<glyph unicode="&#x2139;" horiz-adv-x="2048" d="M1024 2048q209 0 398.5 -81t326.5 -218t218 -326.5t81 -398.5t-81 -398.5t-218 -326.5t-326.5 -218t-398.5 -81t-398.5 81t-326.5 218t-218 326.5t-81 398.5t81 398.5t218 326.5t326.5 218t398.5 81zM1152 384v725h-256v-725h256zM1024 1323q71 0 121 49.5t50 120.5
t-50 121t-121 50t-121 -50t-50 -121t50 -120.5t121 -49.5z" />
<glyph unicode="&#x21a9;" horiz-adv-x="2048" d="M1967 405q-112 139 -360.5 208.5t-582.5 69.5v-384q0 -27 -24 -38q-12 -5 -19 -5q-17 0 -26 9l-938 726q-17 12 -17 33t17 33l938 726q21 16 45 4q24 -11 24 -38v-384q474 0 741 -250.5t283 -690.5q0 -31 -33 -40h-10q-15 0 -38 21z" />
<glyph unicode="&#x21aa;" horiz-adv-x="2048" d="M81 405q-22 -21 -38 -21h-10q-33 9 -33 40q16 440 283 690.5t741 250.5v384q0 27 24 38q24 12 45 -4l938 -726q17 -12 17 -33t-17 -33l-938 -726q-9 -9 -26 -9q-7 0 -19 5q-24 11 -24 38v384q-334 0 -582.5 -69.5t-360.5 -208.5z" />
<glyph unicode="&#x21ba;" horiz-adv-x="2048" d="M1963 1024q0 -190 -74.5 -364t-200.5 -300t-300 -200.5t-364 -74.5q-178 0 -341 64.5t-290 179.5h-2v3q-12 12 -12 28q0 19 10 29l2 2l183 183q11 11 27.5 11.5t29.5 -11.5q80 -69 181.5 -108t211.5 -39q121 0 231.5 47.5t190.5 127.5t127.5 190.5t47.5 231.5
t-47.5 231.5t-127.5 190.5t-190.5 127.5t-231.5 47.5q-227 0 -391 -147l251 -249q17 -16 10 -47q-11 -26 -41 -26h-810q-18 0 -30.5 12.5t-12.5 30.5v810q0 30 26 41q31 7 47 -10l318 -320q128 118 290.5 182.5t342.5 64.5q190 0 364 -74.5t300 -200.5t200.5 -300t74.5 -364
z" />
<glyph unicode="&#x21bb;" horiz-adv-x="2048" d="M2048 2005v-810q0 -18 -12.5 -30.5t-30.5 -12.5h-810q-30 0 -41 26q-7 31 10 47l251 249q-164 147 -391 147q-121 0 -231.5 -47.5t-190.5 -127.5t-127.5 -190.5t-47.5 -231.5t47.5 -231.5t127.5 -190.5t190.5 -127.5t231.5 -47.5q220 0 393 147q13 12 29.5 11.5
t27.5 -11.5l183 -183v-2q12 -9 12 -29q0 -16 -12 -28q0 -3 -2 -3q-127 -115 -290 -179.5t-341 -64.5q-190 0 -364 74.5t-300 200.5t-200.5 300t-74.5 364t74.5 364t200.5 300t300 200.5t364 74.5q180 0 342.5 -64.5t290.5 -182.5l318 320q16 17 47 10q26 -11 26 -41z" />
<glyph unicode="&#x21c6;" horiz-adv-x="2048" d="M1993 1505l-384 -384q-16 -18 -47 -9q-26 11 -26 40v213h-1365q-18 0 -30.5 12.5t-12.5 30.5v256q0 18 12.5 30.5t30.5 12.5h1365v213q0 29 26 40q31 9 47 -9l384 -384q13 -13 13 -31t-13 -31zM1920 640v-256q0 -18 -12.5 -30.5t-30.5 -12.5h-1365v-213q0 -29 -26 -40
q-31 -9 -47 9l-384 384q-13 13 -13 31t13 31l384 384q16 18 47 9q26 -11 26 -40v-213h1365q18 0 30.5 -12.5t12.5 -30.5z" />
<glyph unicode="&#x22c6;" horiz-adv-x="2048" d="M2036 1207l-498 -496l126 -661q3 -27 -19 -43q-10 -7 -24 -7q-13 0 -23 7l-574 370l-574 -370q-24 -15 -47 0q-22 16 -19 43l126 661l-498 496q-17 16 -10 47q11 26 41 26h654l287 740q12 28 40 28t40 -28l287 -740h654q30 0 41 -26q7 -31 -10 -47z" />
<glyph unicode="&#x2302;" horiz-adv-x="2048" d="M2046 1007q-11 -26 -41 -26h-213v-938q0 -18 -12.5 -30.5t-30.5 -12.5h-426q-18 0 -30.5 12.5t-12.5 30.5v725h-512v-725q0 -18 -12.5 -30.5t-30.5 -12.5h-426q-18 0 -30.5 12.5t-12.5 30.5v938h-213q-30 0 -41 26q-7 29 10 48l981 981q13 13 31 13t31 -13l981 -981
q17 -19 10 -48z" />
<glyph unicode="&#x2316;" horiz-adv-x="2048" d="M2005 1152q18 0 30.5 -12.5t12.5 -30.5v-170q0 -18 -12.5 -30.5t-30.5 -12.5h-225q-39 -241 -212.5 -415.5t-415.5 -215.5v-222q0 -18 -12.5 -30.5t-30.5 -12.5h-170q-18 0 -30.5 12.5t-12.5 30.5v222q-241 41 -415.5 215.5t-215.5 415.5h-222q-18 0 -30.5 12.5
t-12.5 30.5v170q0 18 12.5 30.5t30.5 12.5h222q41 242 215.5 415.5t415.5 212.5v225q0 18 12.5 30.5t30.5 12.5h170q18 0 30.5 -12.5t12.5 -30.5v-225q242 -39 415.5 -212.5t212.5 -415.5h225zM1024 512q104 0 198.5 40.5t163.5 109.5t109.5 163.5t40.5 198.5t-40.5 198.5
t-109.5 163.5t-163.5 109.5t-198.5 40.5t-198.5 -40.5t-163.5 -109.5t-109.5 -163.5t-40.5 -198.5t40.5 -198.5t109.5 -163.5t163.5 -109.5t198.5 -40.5z" />
<glyph unicode="&#x232b;" horiz-adv-x="2048" d="M1920 1792q53 0 90.5 -37.5t37.5 -90.5v-1280q0 -53 -37.5 -90.5t-90.5 -37.5h-1190q-14 0 -31 12l-661 666q-38 38 -38 90t38 90l661 666q17 12 31 12h1190zM1792 683l-341 341l341 341l-171 171l-341 -341l-341 341l-171 -171l341 -341l-341 -341l171 -171l341 341
l341 -341z" />
<glyph unicode="&#x2399;" horiz-adv-x="2048" d="M1920 2048q53 0 90.5 -37.5t37.5 -90.5v-1024q0 -53 -37.5 -90.5t-90.5 -37.5h-213v427h-1366v-427h-213q-53 0 -90.5 37.5t-37.5 90.5v1024q0 53 37.5 90.5t90.5 37.5h1792zM1664 1536q53 0 90.5 37.5t37.5 90.5t-37.5 90.5t-90.5 37.5t-90.5 -37.5t-37.5 -90.5
t37.5 -90.5t90.5 -37.5zM512 1024v-981q0 -18 12.5 -30.5t30.5 -12.5h938q18 0 30.5 12.5t12.5 30.5v981h-1024z" />
<glyph unicode="&#x23cf;" horiz-adv-x="2048" d="M43 0q-18 0 -30.5 12.5t-12.5 30.5v256q0 17 12.5 29.5t30.5 12.5h1962q18 0 30.5 -12.5t12.5 -29.5v-256q0 -18 -12.5 -30.5t-30.5 -12.5h-1962zM43 768q-27 0 -38 24q-11 25 4 45l982 1194q10 17 33 17q20 0 33 -17l982 -1194q9 -9 9 -26q0 -7 -5 -19q-11 -24 -38 -24
h-1962z" />
<glyph unicode="&#x23e9;" horiz-adv-x="2048" d="M2048 1024q0 -23 -17 -33l-1194 -982q-20 -15 -45 -4q-24 11 -24 38v540l-699 -574q-20 -15 -45 -4q-24 11 -24 38v1962q0 27 24 38q12 5 19 5q17 0 26 -9l699 -574v540q0 27 24 38q12 5 19 5q17 0 26 -9l1194 -982q17 -13 17 -33z" />
<glyph unicode="&#x23ea;" horiz-adv-x="2048" d="M0 1024q0 20 17 33l1194 982q9 9 26 9q7 0 19 -5q24 -11 24 -38v-540l699 574q9 9 26 9q7 0 19 -5q24 -11 24 -38v-1962q0 -27 -24 -38q-25 -11 -45 4l-699 574v-540q0 -27 -24 -38q-25 -11 -45 4l-1194 982q-17 10 -17 33z" />
<glyph unicode="&#x23ed;" horiz-adv-x="2048" d="M1579 2005q0 18 12.5 30.5t29.5 12.5h256q18 0 30.5 -12.5t12.5 -30.5v-1962q0 -18 -12.5 -30.5t-30.5 -12.5h-256q-17 0 -29.5 12.5t-12.5 30.5v1962zM128 2005q0 27 24 38q25 11 45 -4l1194 -982q17 -13 17 -33q0 -23 -17 -33l-1194 -982q-9 -9 -26 -9q-7 0 -19 5
q-24 11 -24 38v1962z" />
<glyph unicode="&#x23ee;" horiz-adv-x="2048" d="M469 2005v-1962q0 -18 -12.5 -30.5t-29.5 -12.5h-256q-18 0 -30.5 12.5t-12.5 30.5v1962q0 18 12.5 30.5t30.5 12.5h256q17 0 29.5 -12.5t12.5 -30.5zM1920 2005v-1962q0 -27 -24 -38q-12 -5 -19 -5q-17 0 -26 9l-1194 982q-17 10 -17 33q0 20 17 33l1194 982q20 15 45 4
q24 -11 24 -38z" />
<glyph unicode="&#x23f1;" horiz-adv-x="2048" d="M1908 1536l-142 -140q154 -225 154 -500q0 -182 -71 -348t-191 -286t-286 -191t-348 -71t-348 71t-286 191t-191 286t-71 348q0 199 82.5 376.5t228 302.5t329.5 179v251q0 18 12.5 30.5t30.5 12.5h426q18 0 30.5 -12.5t12.5 -30.5v-251q139 -41 244 -116l142 140
q13 12 30 12t30 -12l182 -183q13 -12 13 -29t-13 -30zM1195 896v640h-171l-166 -602q-5 -30 -5 -38q0 -71 50 -121t121 -50t121 50t50 121z" />
<glyph unicode="&#x23f2;" horiz-adv-x="2048" d="M1024 2048q209 0 398.5 -81t326.5 -218t218 -326.5t81 -398.5t-81 -398.5t-218 -326.5t-326.5 -218t-398.5 -81t-398.5 81t-326.5 218t-218 326.5t-81 398.5t81 398.5t218 326.5t326.5 218t398.5 81zM1477 571l121 121l-418 417l-156 683h-171v-768q0 -71 50 -121
q8 -7 29 -24z" />
<glyph unicode="&#x2421;" horiz-adv-x="2048" d="M1911 500q11 -14 11 -31q0 -16 -11 -30l-302 -302q-14 -11 -30 -11q-17 0 -31 11l-524 524l-524 -524q-14 -11 -31 -11q-16 0 -30 11l-302 302q-11 14 -11 30q0 17 11 31l524 524l-524 524q-11 14 -11 31q0 16 11 30l302 302q14 11 30 11q17 0 31 -11l524 -524l524 524
q14 11 31 11q16 0 30 -11l302 -302q11 -14 11 -30q0 -17 -11 -31l-524 -524z" />
<glyph unicode="&#x25a0;" horiz-adv-x="2048" d="M2048 43q0 -18 -12.5 -30.5t-30.5 -12.5h-1962q-18 0 -30.5 12.5t-12.5 30.5v1962q0 18 12.5 30.5t30.5 12.5h1962q18 0 30.5 -12.5t12.5 -30.5v-1962z" />
<glyph unicode="&#x25b4;" horiz-adv-x="2048" d="M2039 453q15 -20 4 -45q-11 -24 -38 -24h-1962q-27 0 -38 24q-11 25 4 45l982 1194q10 17 33 17q20 0 33 -17z" />
<glyph unicode="&#x25b6;" horiz-adv-x="2048" d="M43 0q-14 0 -24 7q-19 11 -19 36v1962q0 25 19 36q20 13 43 2l1962 -981q24 -11 24 -38t-24 -38l-1962 -981q-12 -5 -19 -5z" />
<glyph unicode="&#x25b9;" horiz-adv-x="2048" d="M453 2039l1194 -982q17 -13 17 -33q0 -23 -17 -33l-1194 -982q-20 -15 -45 -4q-24 11 -24 38v1962q0 27 24 38q25 11 45 -4z" />
<glyph unicode="&#x25bb;" horiz-adv-x="2048" d="M683 2048q15 0 30 -12l982 -981q12 -13 12 -31t-12 -31l-982 -981q-12 -13 -30.5 -13t-30.5 13l-299 299q-12 12 -12 30.5t12 30.5l652 652l-652 652q-12 12 -12 30.5t12 30.5l299 299q15 12 31 12z" />
<glyph unicode="&#x25be;" horiz-adv-x="2048" d="M2039 1595l-982 -1194q-13 -17 -33 -17q-23 0 -33 17l-982 1194q-15 20 -4 45q11 24 38 24h1962q27 0 38 -24q11 -25 -4 -45z" />
<glyph unicode="&#x25c3;" horiz-adv-x="2048" d="M1595 2039q20 15 45 4q24 -11 24 -38v-1962q0 -27 -24 -38q-25 -11 -45 4l-1194 982q-17 10 -17 33q0 20 17 33z" />
<glyph unicode="&#x25c5;" horiz-adv-x="2048" d="M1365 0q-15 0 -30 12l-982 981q-12 13 -12 31t12 31l982 981q12 13 30.5 13t30.5 -13l299 -299q12 -12 12 -30.5t-12 -30.5l-654 -652l654 -652q12 -12 12 -30.5t-12 -30.5l-299 -299q-15 -12 -31 -12z" />
<glyph unicode="&#x25ce;" horiz-adv-x="2048" d="M1024 2048q209 0 398.5 -81t326.5 -218t218 -326.5t81 -398.5t-81 -398.5t-218 -326.5t-326.5 -218t-398.5 -81t-398.5 81t-326.5 218t-218 326.5t-81 398.5t81 398.5t218 326.5t326.5 218t398.5 81zM1024 341q185 0 342.5 91.5t249 249t91.5 342.5t-91.5 342.5t-249 249
t-342.5 91.5t-342.5 -91.5t-249 -249t-91.5 -342.5t91.5 -342.5t249 -249t342.5 -91.5zM683 1024q0 -142 99.5 -241.5t241.5 -99.5q141 0 241 99.5t100 241.5q0 140 -100.5 240.5t-240.5 100.5q-142 0 -241.5 -100t-99.5 -241z" />
<glyph unicode="&#x25cf;" horiz-adv-x="2048" d="M2048 1024q0 -209 -81 -398.5t-218 -326.5t-326.5 -218t-398.5 -81t-398.5 81t-326.5 218t-218 326.5t-81 398.5t81 398.5t218 326.5t326.5 218t398.5 81t398.5 -81t326.5 -218t218 -326.5t81 -398.5z" />
<glyph unicode="&#x2601;" horiz-adv-x="2048" d="M2048 768q0 -104 -40.5 -198.5t-109.5 -163.5t-163.5 -109.5t-198.5 -40.5h-1088q-185 0 -316.5 131.5t-131.5 316.5q0 168 110 294t274 149v5q0 130 51 248.5t136.5 204t204 136.5t248.5 51q234 0 411.5 -150t219.5 -376q170 -39 281.5 -178.5t111.5 -319.5z" />
<glyph unicode="&#x2665;" horiz-adv-x="2048" d="M1764 846l-709 -711q-17 -12 -31 -12q-19 0 -31 12l-709 711q-124 124 -195.5 253.5t-85 246t21.5 221t117 185.5q106 106 248.5 143.5t285 0t248.5 -143.5q59 -59 100 -133q41 74 100 133q106 107 248.5 145t285.5 0t250 -145q109 -109 135 -254t-44 -316t-235 -336z
" />
<glyph unicode="&#x266b;" horiz-adv-x="2048" d="M2048 1944v-1176q0 -187 -128.5 -325.5t-319.5 -174.5q-121 -25 -224.5 0.5t-163.5 92.5t-60 160q0 142 132 274t316 167q98 19 173 19h62v512l-939 -213v-768q0 -187 -128.5 -325.5t-319.5 -174.5q-121 -25 -224.5 0.5t-163.5 92.5t-60 160q0 142 132 274t316 167
q98 19 173 19h62v920q0 53 37 98.5t88 57.5l1114 245q52 11 89 -19t37 -83z" />
<glyph unicode="&#x2691;" horiz-adv-x="2048" d="M1792 1892v-930q0 -22 -24 -38q-135 -71 -296 -71q-65 0 -148.5 14t-142.5 29t-157 43q-99 27 -158 42t-142.5 29t-147.5 14q-10 0 -32 -1t-32 -1v-979q0 -18 -12.5 -30.5t-30.5 -12.5h-170q-18 0 -30.5 12.5t-12.5 30.5v1896q0 22 21 36q136 73 299 73q64 0 147.5 -14
t142.5 -29t158 -42q98 -28 157 -43t142.5 -29t148.5 -14q140 0 261 55q23 9 40 -5q19 -11 19 -35z" />
<glyph unicode="&#x2699;" horiz-adv-x="2048" d="M1783 905l196 -170q24 -17 12 -45q-60 -184 -194 -337q-20 -23 -45 -12l-247 86q-91 -75 -204 -119l-49 -256q-2 -12 -12 -22t-22 -11q-101 -19 -194 -19t-194 19q-12 1 -22 11t-12 22l-49 256q-118 46 -204 119l-247 -86q-25 -11 -45 12q-134 153 -194 337q-12 28 12 45
l196 170q-9 49 -9 119t9 119l-196 170q-24 17 -12 45q60 184 194 337q20 23 45 12l247 -86q86 73 204 119l49 256q2 12 12 22t22 11q194 39 388 0q12 -1 22 -11t12 -22l49 -256q113 -44 204 -119l247 86q25 11 45 -12q134 -153 194 -337q12 -28 -12 -45l-196 -170
q9 -49 9 -119t-9 -119zM1024 640q159 0 271.5 112.5t112.5 271.5q0 158 -113 271t-271 113q-159 0 -271.5 -112.5t-112.5 -271.5q0 -160 112 -272t272 -112z" />
<glyph unicode="&#x26a0;" horiz-adv-x="2048" d="M2024 308q25 -49 23 -104.5t-30 -101.5q-30 -48 -78.5 -75t-103.5 -27h-1622q-55 0 -103.5 27t-78.5 75q-28 46 -30.5 101.5t20.5 104.5l811 1621q28 55 79.5 87t112.5 32t112 -32t78 -87zM896 1493v-725h256v725h-256zM1024 213q71 0 121 50t50 121t-50 121t-121 50
t-121 -50t-50 -121t50 -121t121 -50z" />
<glyph unicode="&#x26d4;" horiz-adv-x="2048" d="M1024 2048q209 0 398.5 -81t326.5 -218t218 -326.5t81 -398.5t-81 -398.5t-218 -326.5t-326.5 -218t-398.5 -81t-398.5 81t-326.5 218t-218 326.5t-81 398.5t81 398.5t218 326.5t326.5 218t398.5 81zM256 768h1536v512h-1536v-512z" />
<glyph unicode="&#x2708;" horiz-adv-x="2047" d="M2048 896v-85q0 -18 -12.5 -30.5t-30.5 -12.5h-773l-59 -475q4 -2 219 -174q16 -13 16 -34v-42q0 -18 -12.5 -30.5t-30.5 -12.5h-682q-18 0 -30.5 12.5t-12.5 30.5v42q0 21 16 34q215 172 219 174l-59 475h-773q-18 0 -30.5 12.5t-12.5 30.5v85q0 25 23 38l788 414v359v2
q0 123 41 213q57 126 172 126t172 -126q41 -90 41 -213v-2v-359l788 -414q23 -13 23 -38z" />
<glyph unicode="&#x2709;" horiz-adv-x="2048" d="M1024 896l-1024 768q0 53 37.5 90.5t90.5 37.5h1792q53 0 90.5 -37.5t37.5 -90.5zM1024 666l1024 768v-1050q0 -53 -37.5 -90.5t-90.5 -37.5h-1792q-53 0 -90.5 37.5t-37.5 90.5v1050z" />
<glyph unicode="&#x270e;" horiz-adv-x="2048" d="M1664 1280l-384 384l-1055 -1055q-6 -6 -9 -14l-214 -536q-7 -30 10 -47q15 -12 31 -12q9 0 16 2l536 214q8 3 14 9zM2010 1809q38 -40 38 -92.5t-38 -90.5l-218 -218l-384 384l218 218q38 38 90.5 38t92.5 -38z" />
<glyph unicode="&#x2710;" horiz-adv-x="2048" d="M384 768l1055 1055q7 7 14 9l536 214q4 2 16 2q16 0 31 -12q17 -17 10 -47l-214 -536q-2 -7 -9 -14l-1055 -1055zM38 239q-38 37 -38 91t38 92l218 218l384 -384l-218 -218q-38 -38 -92 -38t-91 38z" />
<glyph unicode="&#x2713;" horiz-adv-x="2048" d="M2036 1463l-1237 -1238q-17 -12 -31 -12t-31 12l-725 726q-13 12 -13 30.5t13 30.5l299 299q12 12 30.5 12t30.5 -12l396 -398l908 910q12 12 30.5 12t30.5 -12l299 -299q13 -12 13 -30.5t-13 -30.5z" />
<glyph unicode="&#x2753;" horiz-adv-x="2048" d="M1024 2048q208 0 397.5 -81.5t326.5 -218.5t218.5 -326.5t81.5 -397.5q0 -209 -81.5 -398.5t-218.5 -326.5t-326.5 -218t-397.5 -81q-209 0 -398.5 81t-326.5 218t-218 326.5t-81 398.5q0 208 81 397.5t218 326.5t326.5 218.5t398.5 81.5zM1024 256q71 0 121 50t50 121
t-50 120.5t-121 49.5t-121 -49.5t-50 -120.5t50 -121t121 -50zM1152 853q0 29 25.5 55.5t63 47t82 52.5t82 69.5t63 101.5t25.5 144q0 188 -135.5 307t-333.5 119q-72 0 -142 -22t-119.5 -53.5t-88.5 -62.5t-58 -53l-19 -22l171 -171q5 5 14.5 13.5t38.5 31t58 39t69 30.5
t76 14q92 0 152.5 -51.5t60.5 -118.5q0 -34 -19 -63.5t-49 -51.5t-66.5 -44t-72.5 -47t-66 -54t-49 -72t-19 -95v-85h256v42z" />
<glyph unicode="&#x27a1;" horiz-adv-x="2048" d="M1097 1993l939 -938q12 -17 12 -31t-12 -31l-939 -938q-17 -19 -47 -10q-26 11 -26 40v555h-981q-18 0 -30.5 12.5t-12.5 30.5v682q0 18 12.5 30.5t30.5 12.5h981v555q0 29 26 40q30 9 47 -10z" />
<glyph unicode="&#x2922;" horiz-adv-x="2048" d="M1083 723l-360 -363l287 -287q14 -11 14 -30q0 -18 -12.5 -30.5t-30.5 -12.5h-938q-18 0 -30.5 12.5t-12.5 30.5v938q0 30 26 41q31 7 47 -10l287 -289l363 360q13 13 30 13t29 -13l301 -301q14 -10 14 -31q0 -18 -14 -28zM2048 2005v-938q0 -30 -26 -41q-5 -2 -17 -2
q-15 0 -30 12l-287 289l-363 -363q-11 -11 -28 -11q-20 0 -31 11l-304 304q-12 12 -12 29t12 30l363 363l-289 287q-17 16 -10 47q11 26 41 26h938q18 0 30.5 -12.5t12.5 -30.5z" />
<glyph unicode="&#x2b05;" horiz-adv-x="2048" d="M951 55l-939 938q-12 17 -12 31t12 31l939 938q17 19 47 10q26 -11 26 -40v-555h981q18 0 30.5 -12.5t12.5 -30.5v-682q0 -18 -12.5 -30.5t-30.5 -12.5h-981v-555q0 -29 -26 -40q-30 -9 -47 10z" />
<glyph unicode="&#x2b06;" horiz-adv-x="2048" d="M55 1097l938 939q17 12 31 12t31 -12l938 -939q19 -17 10 -47q-11 -26 -40 -26h-555v-981q0 -18 -12.5 -30.5t-30.5 -12.5h-682q-18 0 -30.5 12.5t-12.5 30.5v981h-555q-29 0 -40 26q-9 30 10 47z" />
<glyph unicode="&#x2b07;" horiz-adv-x="2048" d="M1993 951l-938 -939q-17 -12 -31 -12t-31 12l-938 939q-19 17 -10 47q11 26 40 26h555v981q0 18 12.5 30.5t30.5 12.5h682q18 0 30.5 -12.5t12.5 -30.5v-981h555q29 0 40 -26q9 -30 -10 -47z" />
<glyph unicode="&#x2b08;" horiz-adv-x="2048" d="M268 799l739 737l-440 439q-19 17 -10 47q11 26 40 26h1408q18 0 30.5 -12.5t12.5 -30.5v-1408q0 -29 -26 -40q-30 -9 -47 10l-439 440l-737 -739q-13 -13 -31 -13t-31 13l-469 469q-13 13 -13 31t13 31z" />
<glyph unicode="&#x2b09;" horiz-adv-x="2048" d="M1780 799q13 -13 13 -31t-13 -31l-469 -469q-13 -13 -31 -13t-31 13l-737 739l-439 -440q-17 -19 -47 -10q-26 11 -26 40v1408q0 18 12.5 30.5t30.5 12.5h1408q29 0 40 -26q9 -30 -10 -47l-440 -439z" />
<glyph unicode="&#x2b0a;" horiz-adv-x="2048" d="M268 1249q-13 13 -13 31t13 31l469 469q13 13 31 13t31 -13l737 -739l439 440q17 19 47 10q26 -11 26 -40v-1408q0 -18 -12.5 -30.5t-30.5 -12.5h-1408q-29 0 -40 26q-9 30 10 47l440 439z" />
<glyph unicode="&#x2b0b;" horiz-adv-x="2048" d="M1780 1249l-739 -737l440 -439q19 -17 10 -47q-11 -26 -40 -26h-1408q-18 0 -30.5 12.5t-12.5 30.5v1408q0 29 26 40q30 9 47 -10l439 -440l737 739q13 13 31 13t31 -13l469 -469q13 -13 13 -31t-13 -31z" />
<glyph unicode="&#xe001;" horiz-adv-x="2048" d="M1662 794q-11 -26 -41 -26h-533l299 -609q9 -17 3 -33.5t-22 -23.5l-192 -97q-17 -9 -33.5 -3.5t-23.5 22.5l-296 611l-366 -367q-15 -12 -30 -12q-12 0 -17 2q-26 11 -26 41v1706q0 30 26 41q31 7 47 -10l1195 -1195q17 -16 10 -47z" />
<glyph unicode="&#xe002;" horiz-adv-x="2048" d="M1280 2048q209 0 385.5 -103t279.5 -279.5t103 -385.5t-103 -385.5t-279.5 -279.5t-385.5 -103q-225 0 -410 119l-578 -581q-52 -50 -121 -50q-71 0 -121 50t-50 121t50 121l581 578q-119 185 -119 410q0 209 103 385.5t279.5 279.5t385.5 103zM1707 1152v256h-299v299
h-256v-299h-299v-256h299v-299h256v299h299z" />
<glyph unicode="&#xe003;" horiz-adv-x="2048" d="M1280 2048q209 0 385.5 -103t279.5 -279.5t103 -385.5t-103 -385.5t-279.5 -279.5t-385.5 -103q-225 0 -410 119l-578 -581q-52 -50 -121 -50q-71 0 -121 50t-50 121t50 121l581 578q-119 185 -119 410q0 209 103 385.5t279.5 279.5t385.5 103zM1707 1408h-854v-256h854
v256z" />
<glyph unicode="&#xe070;" horiz-adv-x="2048" d="M2036 993l-384 -384q-15 -12 -31 -12q-12 0 -16 3q-26 11 -26 40v213h-384v-384h213q29 0 40 -26q9 -29 -9 -47l-384 -384q-17 -12 -31 -12t-31 12l-384 384q-18 18 -9 47q11 26 40 26h213v384h-384v-213q0 -29 -26 -40q-4 -3 -16 -3q-16 0 -31 12l-384 384
q-13 13 -13 31t13 31l384 384q18 18 47 9q26 -11 26 -40v-213h384v384h-213q-29 0 -40 26q-9 29 9 47l384 384q13 13 31 13t31 -13l384 -384q18 -18 9 -47q-11 -26 -40 -26h-213v-384h384v213q0 29 26 40q29 9 47 -9l384 -384q13 -13 13 -31t-13 -31z" />
<glyph unicode="&#xe071;" horiz-adv-x="2048" d="M619 1003l-394 -394q-6 -6 -9 -14l-214 -536q-7 -30 10 -47q15 -12 31 -12q9 0 16 2l536 214q8 3 14 9l394 394zM1884 164q36 35 36 86t-36 89l-580 581l360 360l-384 384l-360 -360l-583 583q-37 35 -88.5 35t-87.5 -35q-35 -37 -35 -88.5t35 -87.5l1548 -1547
q36 -36 88 -36q53 0 87 36zM2010 1809q38 -40 38 -92.5t-38 -90.5l-218 -218l-384 384l218 218q38 38 90.5 38t92.5 -38z" />
<glyph unicode="&#xe0d0;" horiz-adv-x="2048" d="M1920 2048q18 0 30.5 -12.5t12.5 -30.5v-170q0 -18 -12.5 -30.5t-30.5 -12.5h-1792q-18 0 -30.5 12.5t-12.5 30.5v170q0 18 12.5 30.5t30.5 12.5h1792zM256 1621h1536l-128 -1583q-2 -16 -14.5 -27t-28.5 -11h-1194q-16 0 -28.5 11t-14.5 27z" />
<glyph unicode="&#xe100;" horiz-adv-x="2048" d="M38 751q-38 37 -38 91t38 92l1102 1102q12 12 29 12h751q53 0 90.5 -37.5t37.5 -90.5v-751q0 -17 -12 -29l-1102 -1102q-38 -38 -92 -38t-91 38zM1408 1600q0 -80 56 -136t136 -56t136 56t56 136t-56 136t-136 56t-136 -56t-56 -136z" />
<glyph unicode="&#xe1a0;" horiz-adv-x="1024" d="M1024 123q-19 0 -31 12l-709 711q-124 124 -195.5 253.5t-85 246t21.5 221t117 185.5q106 106 248.5 143.5t285 0t248.5 -143.5q59 -59 100 -133v-1496z" />
<glyph unicode="&#xe1a1;" horiz-adv-x="1024" d="M1024 377l-574 -370q-24 -15 -47 0q-22 16 -19 43l126 661l-498 496q-17 16 -10 47q11 26 41 26h654l287 740q12 28 40 28v-1671z" />
<glyph unicode="&#xe200;" horiz-adv-x="2048" d="M1195 853l-342 342l-682 -683q-20 -20 -30 -44t-11.5 -39.5t-1.5 -44.5t-1.5 -44.5t-11.5 -39.5t-30 -44l-73 -73q-13 -13 -13 -30t13 -30l111 -111q13 -13 30 -13t30 13l71 73l2 3q20 19 44 28t39.5 10.5t44.5 1.5t44.5 1.5t39.5 11.5t44 30zM1109 1536l425 424
q87 87 212.5 87t213.5 -87q87 -88 87 -213.5t-87 -212.5l-424 -425l116 -113q13 -13 13 -31t-13 -31l-114 -111q-12 -13 -29 -13t-30 13l-656 656q-13 13 -13 30t13 29l111 114q13 13 31 13t31 -13z" />
<glyph unicode="&#xe201;" horiz-adv-x="2048" d="M1664 213h-341v-170q0 -18 12.5 -30.5t29.5 -12.5h256q18 0 30.5 12.5t12.5 30.5v170zM43 1664q-18 0 -30.5 -12.5t-12.5 -30.5v-256q0 -17 12.5 -29.5t30.5 -12.5h170v341h-170zM2005 725q18 0 30.5 -12.5t12.5 -29.5v-256q0 -18 -12.5 -30.5t-30.5 -12.5h-1578
q-18 0 -30.5 12.5t-12.5 30.5v1578q0 18 12.5 30.5t30.5 12.5h256q17 0 29.5 -12.5t12.5 -30.5v-341h896q18 0 30.5 -12.5t12.5 -30.5v-896h341zM725 725h598v598h-598v-598z" />
<glyph unicode="&#xe202;" horiz-adv-x="2048" d="M1536 1664v-213h-939q-107 0 -181.5 -74.5t-74.5 -181.5v-555h-213q-53 0 -90.5 37.5t-37.5 90.5v896q0 53 37.5 90.5t90.5 37.5h1280q53 0 90.5 -37.5t37.5 -90.5zM2048 1152v-768q0 -53 -37.5 -90.5t-90.5 -37.5h-1280q-53 0 -90.5 37.5t-37.5 90.5v811q0 35 25 60
t60 25h1323q53 0 90.5 -37.5t37.5 -90.5z" />
<glyph unicode="&#xe240;" horiz-adv-x="2048" d="M2005 2048q18 0 30.5 -12.5t12.5 -30.5v-1194q0 -18 -12.5 -30.5t-30.5 -12.5h-554v256h341v768h-768v-341h-256v554q0 18 12.5 30.5t30.5 12.5h1194zM1237 0q18 0 30.5 12.5t12.5 30.5v1194q0 18 -12.5 30.5t-30.5 12.5h-1194q-18 0 -30.5 -12.5t-12.5 -30.5v-1194
q0 -18 12.5 -30.5t30.5 -12.5h1194z" />
<glyph unicode="&#xe241;" horiz-adv-x="2048" d="M2048 2005v-1194q0 -18 -12.5 -30.5t-30.5 -12.5h-554v597q0 36 -25 61t-61 25h-597v554q0 18 12.5 30.5t30.5 12.5h1194q18 0 30.5 -12.5t12.5 -30.5zM1237 1280q18 0 30.5 -12.5t12.5 -30.5v-1194q0 -18 -12.5 -30.5t-30.5 -12.5h-1194q-18 0 -30.5 12.5t-12.5 30.5
v1194q0 18 12.5 30.5t30.5 12.5h1194zM256 256h768v768h-768v-768z" />
<glyph unicode="&#xe300;" horiz-adv-x="2048" d="M1154 339q-402 -275 -893 -337q-7 -2 -17 -2q-12 0 -16 2q-14 6 -24 24l-202 507q-5 16 1.5 31.5t20.5 23.5l559 280q25 13 50 -8zM2048 1804q0 -10 -2 -17q-42 -337 -188 -637.5t-377 -537.5l403 -401q36 -37 36 -88.5t-36 -86.5q-34 -36 -87 -36q-52 0 -88 36
l-1548 1547q-35 36 -35 87.5t35 88.5q36 35 87.5 35t88.5 -35l900 -903q125 127 223 287l-272 272q-21 25 -8 50l280 559q8 14 23.5 20.5t31.5 1.5l507 -202q18 -10 21 -24q5 -7 5 -16z" />
<glyph unicode="&#xe310;" horiz-adv-x="2048" d="M640 320q0 -134 -93 -227t-227 -93t-227 93t-93 227t93 227t227 93t227 -93t93 -227zM2048 43q0 -18 -12.5 -30.5t-30.5 -12.5h-298q-18 0 -30.5 12.5t-12.5 30.5q0 221 -58 431t-162.5 388t-254 327.5t-327.5 254t-388 162.5t-431 58q-18 0 -30.5 12.5t-12.5 30.5v298
q0 18 12.5 30.5t30.5 12.5q273 0 532.5 -72t479.5 -201.5t405 -314.5t314.5 -405t201.5 -479.5t72 -532.5zM1408 43q0 -18 -12.5 -30.5t-30.5 -12.5h-298q-18 0 -30.5 12.5t-12.5 30.5q0 200 -77.5 381.5t-209 313t-313 209t-381.5 77.5q-18 0 -30.5 12.5t-12.5 30.5v298
q0 18 12.5 30.5t30.5 12.5q185 0 362 -49t327 -137t276 -214t214 -276t137 -327t49 -362z" />
<glyph unicode="&#xe320;" horiz-adv-x="2048" d="M1152 1664q53 0 90.5 -37.5t37.5 -90.5v-1024q0 -53 -37.5 -90.5t-90.5 -37.5h-1024q-53 0 -90.5 37.5t-37.5 90.5v1024q0 53 37.5 90.5t90.5 37.5h1024zM2048 1621v-1194q0 -30 -26 -41q-5 -2 -17 -2q-15 0 -30 12l-536 538q-37 38 -37 90t37 90l536 538q16 17 47 10
q26 -11 26 -41z" />
<glyph unicode="&#xe350;" horiz-adv-x="2048" d="M2048 2001l-256 -1963q-3 -23 -24 -33q-19 -11 -38 0l-651 324l-235 -312q-12 -17 -33 -17q-10 0 -15 2q-28 9 -28 41v426q0 17 9 26l932 1200l-1211 -1046q-13 -9 -29 -9q-11 0 -19 5l-426 213q-24 11 -24 36t21 40l1963 1109q24 12 45 -2q22 -16 19 -40z" />
<glyph unicode="&#xe399;" horiz-adv-x="2048" d="M1024 1920q209 0 398.5 -66t326.5 -177t218 -265.5t81 -323.5t-81 -323.5t-218 -265.5t-326.5 -177t-398.5 -66q-80 0 -173 12q-268 -268 -552 -268q-30 0 -41 26q-7 31 10 47l2 2q96 107 136 260q10 39 16 80q-196 116 -309 292.5t-113 380.5q0 169 81 323.5t218 265.5
t326.5 177t398.5 66zM512 939q71 0 121 49.5t50 120.5t-50 121t-121 50t-121 -50t-50 -121t50 -120.5t121 -49.5zM1024 939q71 0 121 49.5t50 120.5t-50 121t-121 50t-121 -50t-50 -121t50 -120.5t121 -49.5zM1536 939q71 0 121 49.5t50 120.5t-50 121t-121 50t-121 -50
t-50 -121t50 -120.5t121 -49.5z" />
<glyph unicode="&#xe500;" horiz-adv-x="2048" d="M597 213q0 89 62.5 151.5t151.5 62.5t151 -62.5t62 -151.5t-62 -151t-151 -62t-151.5 62t-62.5 151zM1280 213q0 89 62 151.5t151 62.5t151.5 -62.5t62.5 -151.5t-62.5 -151t-151.5 -62t-151 62t-62 151zM2046 1612l-261 -875q-11 -43 -45 -70t-78 -27h-1022
q-44 0 -79 27t-44 70l-261 1055h-128q-53 0 -90.5 37.5t-37.5 90.5t37.5 90.5t90.5 37.5h228q44 0 79.5 -27t45.5 -70l71 -287h1453q20 0 34 -17q14 -14 7 -35z" />
<glyph unicode="&#xe570;" horiz-adv-x="2048" d="M1792 896q0 -182 -71 -348t-191 -286t-286 -191t-348 -71t-348 71t-286 191t-191 286t-71 348t71 348t191 286t286 191t348 71v-896h896zM2048 1109q0 -17 -12.5 -29.5t-30.5 -12.5h-938v938q0 18 12.5 30.5t29.5 12.5q190 0 364 -74.5t300 -200.5t200.5 -300t74.5 -364z
" />
<glyph unicode="&#xe602;" horiz-adv-x="2048" d="M2048 1621v-1578q0 -18 -12.5 -30.5t-30.5 -12.5h-1962q-18 0 -30.5 12.5t-12.5 30.5v1962q0 18 12.5 30.5t30.5 12.5h384q17 0 29.5 -12.5t12.5 -30.5v-844l745 496q19 15 42 2q24 -11 24 -38v-431l702 467q19 15 42 2q24 -11 24 -38z" />
<glyph unicode="&#xe670;" horiz-adv-x="2048" d="M1067 0h-10q-14 4 -23.5 16.5t-9.5 26.5v981h-981q-14 0 -26.5 9.5t-16.5 23.5q-2 15 5 28.5t19 19.5l1962 938q28 12 50 -7q19 -22 7 -50l-938 -1962q-13 -24 -38 -24z" />
<glyph unicode="&#xe671;" horiz-adv-x="2048" d="M1773 7q-10 -7 -24 -7q-19 0 -28 9l-697 631l-697 -631q-26 -20 -52 -2q-28 20 -17 50l726 1963q12 28 40 28t40 -28l726 -1963q11 -30 -17 -50z" />
<glyph unicode="&#xe672;" horiz-adv-x="2048" d="M2036 737l-213 -213q-17 -12 -31 -12h-1621q-18 0 -30.5 12.5t-12.5 30.5v426q0 18 12.5 30.5t30.5 12.5h682v213h342v-213h597q14 0 31 -12l213 -213q13 -13 13 -31t-13 -31zM1920 1877v-426q0 -18 -12.5 -30.5t-30.5 -12.5h-1621q-14 0 -31 12l-213 213q-13 13 -13 31
t13 31l213 213q17 12 31 12h597v85q0 18 12.5 30.5t30.5 12.5h256q18 0 30.5 -12.5t12.5 -30.5v-85h682q18 0 30.5 -12.5t12.5 -30.5zM1195 341v-298q0 -18 -12.5 -30.5t-30.5 -12.5h-256q-18 0 -30.5 12.5t-12.5 30.5v298h342z" />
<glyph unicode="&#xe673;" horiz-adv-x="2048" d="M2029 1823q19 -11 19 -33v-1451q0 -33 -31 -40l-640 -211q-2 -3 -12 -3q-12 0 -16 3l-669 249l-625 -209q-18 -8 -38 5q-17 15 -17 35v934q26 21 90 59l-90 147v311q0 28 28 40l640 216q14 3 29 0l668 -254l626 209q23 8 38 -7zM230 1235q109 46 227 69l-30 168
q-142 -27 -263 -81zM846 1299l38 166q-134 29 -275 26l5 -171q122 0 232 -21zM1197 1138l104 135q-111 86 -241 137l-64 -156q113 -49 201 -116zM1313 1033q42 -44 75.5 -90.5t46.5 -70t13 -26.5l79 38l75 36q-60 119 -163 230zM1664 424q71 0 121 50t50 121t-50 121
t-121 50t-121 -50t-50 -121t50 -121t121 -50z" />
<glyph unicode="&#xe6d0;" horiz-adv-x="2048" d="M1024 2048q185 0 342.5 -91.5t249 -249t91.5 -342.5q0 -176 -88 -334l-557 -1010q-12 -21 -38 -21t-38 21l-557 1010q-88 150 -88 334q0 185 91.5 342.5t249 249t342.5 91.5zM1024 1109q106 0 181 74.5t75 181.5t-74.5 181.5t-181.5 74.5t-181.5 -74.5t-74.5 -181.5
t75 -181.5t181 -74.5z" />
<glyph unicode="&#xe7a0;" horiz-adv-x="2048" d="M1792 597v-298q0 -71 -102 -140t-282 -114t-384 -45t-384 45t-282 114t-102 140v298q128 -82 328.5 -126t439.5 -44t439.5 44t328.5 126zM1792 1195v-342q0 -70 -103 -129t-279.5 -93t-385.5 -34t-385.5 34t-279.5 93t-103 129v342q128 -82 328.5 -126.5t439.5 -44.5
t439.5 44.5t328.5 126.5zM1792 1792v-341q0 -70 -103 -129t-279.5 -93t-385.5 -34t-385.5 34t-279.5 93t-103 129v341q0 70 103 129t279.5 93t385.5 34t385.5 -34t279.5 -93t103 -129z" />
<glyph unicode="&#xe7b0;" horiz-adv-x="2048" d="M1920 768q53 0 90.5 -37.5t37.5 -90.5v-512q0 -53 -37.5 -90.5t-90.5 -37.5h-1792q-53 0 -90.5 37.5t-37.5 90.5v512q0 53 37.5 90.5t90.5 37.5h1792zM1152 256q53 0 90.5 37.5t37.5 90.5t-37.5 90.5t-90.5 37.5t-90.5 -37.5t-37.5 -90.5t37.5 -90.5t90.5 -37.5z
M1664 256q53 0 90.5 37.5t37.5 90.5t-37.5 90.5t-90.5 37.5t-90.5 -37.5t-37.5 -90.5t37.5 -90.5t90.5 -37.5zM1875 1939l152 -1019q-54 19 -107 19h-1792q-53 0 -107 -19l150 1019q7 47 43.5 78t84.5 31h1450q48 0 83 -31t43 -78z" />
<glyph unicode="&#xe800;" horiz-adv-x="2048" d="M1920 1920q53 0 90.5 -37.5t37.5 -90.5v-1280q0 -53 -37.5 -90.5t-90.5 -37.5h-211l-256 256h339v1024h-1536v-1024h339l-256 -256h-211q-53 0 -90.5 37.5t-37.5 90.5v1280q0 53 37.5 90.5t90.5 37.5h1792zM1621 128q30 0 41 26q7 31 -10 47l-597 598q-13 12 -31 12
t-31 -12l-597 -598q-17 -16 -10 -47q11 -26 41 -26h1194z" />
<glyph unicode="&#xe8a0;" horiz-adv-x="2048" d="M725 0h-682q-18 0 -30.5 12.5t-12.5 30.5v1962q0 18 12.5 30.5t30.5 12.5h682q18 0 30.5 -12.5t12.5 -30.5v-1962q0 -18 -12.5 -30.5t-30.5 -12.5zM2005 0h-682q-18 0 -30.5 12.5t-12.5 30.5v1962q0 18 12.5 30.5t30.5 12.5h682q18 0 30.5 -12.5t12.5 -30.5v-1962
q0 -18 -12.5 -30.5t-30.5 -12.5z" />
<glyph unicode="&#xe9a0;" horiz-adv-x="2048" d="M0 2005q0 18 12.5 30.5t30.5 12.5h426q18 0 30.5 -12.5t12.5 -30.5v-426q0 -18 -12.5 -30.5t-30.5 -12.5h-426q-18 0 -30.5 12.5t-12.5 30.5v426zM768 2005q0 18 12.5 30.5t30.5 12.5h426q18 0 30.5 -12.5t12.5 -30.5v-426q0 -18 -12.5 -30.5t-30.5 -12.5h-426
q-18 0 -30.5 12.5t-12.5 30.5v426zM1536 2005q0 18 12.5 30.5t30.5 12.5h426q18 0 30.5 -12.5t12.5 -30.5v-426q0 -18 -12.5 -30.5t-30.5 -12.5h-426q-18 0 -30.5 12.5t-12.5 30.5v426zM0 1237q0 18 12.5 30.5t30.5 12.5h426q18 0 30.5 -12.5t12.5 -30.5v-426
q0 -18 -12.5 -30.5t-30.5 -12.5h-426q-18 0 -30.5 12.5t-12.5 30.5v426zM768 1237q0 18 12.5 30.5t30.5 12.5h426q18 0 30.5 -12.5t12.5 -30.5v-426q0 -18 -12.5 -30.5t-30.5 -12.5h-426q-18 0 -30.5 12.5t-12.5 30.5v426zM1536 1237q0 18 12.5 30.5t30.5 12.5h426
q18 0 30.5 -12.5t12.5 -30.5v-426q0 -18 -12.5 -30.5t-30.5 -12.5h-426q-18 0 -30.5 12.5t-12.5 30.5v426zM0 469q0 18 12.5 30.5t30.5 12.5h426q18 0 30.5 -12.5t12.5 -30.5v-426q0 -18 -12.5 -30.5t-30.5 -12.5h-426q-18 0 -30.5 12.5t-12.5 30.5v426zM768 469
q0 18 12.5 30.5t30.5 12.5h426q18 0 30.5 -12.5t12.5 -30.5v-426q0 -18 -12.5 -30.5t-30.5 -12.5h-426q-18 0 -30.5 12.5t-12.5 30.5v426zM1536 469q0 18 12.5 30.5t30.5 12.5h426q18 0 30.5 -12.5t12.5 -30.5v-426q0 -18 -12.5 -30.5t-30.5 -12.5h-426q-18 0 -30.5 12.5
t-12.5 30.5v426z" />
<glyph unicode="&#xe9a1;" horiz-adv-x="2048" d="M2048 1237v-426q0 -18 -12.5 -30.5t-30.5 -12.5h-1962q-18 0 -30.5 12.5t-12.5 30.5v426q0 18 12.5 30.5t30.5 12.5h1962q18 0 30.5 -12.5t12.5 -30.5zM2048 2005v-426q0 -18 -12.5 -30.5t-30.5 -12.5h-1962q-18 0 -30.5 12.5t-12.5 30.5v426q0 18 12.5 30.5t30.5 12.5
h1962q18 0 30.5 -12.5t12.5 -30.5zM2048 469v-426q0 -18 -12.5 -30.5t-30.5 -12.5h-1962q-18 0 -30.5 12.5t-12.5 30.5v426q0 18 12.5 30.5t30.5 12.5h1962q18 0 30.5 -12.5t12.5 -30.5z" />
<glyph unicode="&#xe9a2;" horiz-adv-x="2048" d="M811 2048h426q18 0 30.5 -12.5t12.5 -30.5v-1962q0 -18 -12.5 -30.5t-30.5 -12.5h-426q-18 0 -30.5 12.5t-12.5 30.5v1962q0 18 12.5 30.5t30.5 12.5zM43 2048h426q18 0 30.5 -12.5t12.5 -30.5v-1962q0 -18 -12.5 -30.5t-30.5 -12.5h-426q-18 0 -30.5 12.5t-12.5 30.5
v1962q0 18 12.5 30.5t30.5 12.5zM1579 2048h426q18 0 30.5 -12.5t12.5 -30.5v-1962q0 -18 -12.5 -30.5t-30.5 -12.5h-426q-18 0 -30.5 12.5t-12.5 30.5v1962q0 18 12.5 30.5t30.5 12.5z" />
<glyph unicode="&#xe9a3;" horiz-adv-x="2048" d="M853 1152h-810q-18 0 -30.5 12.5t-12.5 30.5v810q0 18 12.5 30.5t30.5 12.5h810q18 0 30.5 -12.5t12.5 -30.5v-810q0 -18 -12.5 -30.5t-30.5 -12.5zM2005 1152h-810q-18 0 -30.5 12.5t-12.5 30.5v810q0 18 12.5 30.5t30.5 12.5h810q18 0 30.5 -12.5t12.5 -30.5v-810
q0 -18 -12.5 -30.5t-30.5 -12.5zM853 0h-810q-18 0 -30.5 12.5t-12.5 30.5v810q0 18 12.5 30.5t30.5 12.5h810q18 0 30.5 -12.5t12.5 -30.5v-810q0 -18 -12.5 -30.5t-30.5 -12.5zM2005 0h-810q-18 0 -30.5 12.5t-12.5 30.5v810q0 18 12.5 30.5t30.5 12.5h810
q18 0 30.5 -12.5t12.5 -30.5v-810q0 -18 -12.5 -30.5t-30.5 -12.5z" />
<glyph unicode="&#xe9b0;" horiz-adv-x="2048" d="M2027 1849l-747 -1102v-704q0 -18 -12.5 -30.5t-30.5 -12.5h-426q-18 0 -30.5 12.5t-12.5 30.5v704l-747 1102q-19 28 -21 64t14 66q39 69 114 69h1792q75 0 114 -69q16 -30 14 -66t-21 -64z" />
<glyph unicode="&#xea00;" horiz-adv-x="2048" d="M2041 393q7 -6 7 -23v-199q0 -18 -12.5 -30.5t-30.5 -12.5h-1962q-18 0 -30.5 12.5t-12.5 30.5v199q0 17 7 23l121 183v1216q0 53 37.5 90.5t90.5 37.5h1536q53 0 90.5 -37.5t37.5 -90.5v-1216zM384 1664v-1024h1280v1024h-1280z" />
<glyph unicode="&#xea01;" horiz-adv-x="2048" d="M1664 2048q53 0 90.5 -37.5t37.5 -90.5v-1792q0 -53 -37.5 -90.5t-90.5 -37.5h-1280q-53 0 -90.5 37.5t-37.5 90.5v1792q0 53 37.5 90.5t90.5 37.5h1280zM1536 256v1536h-1024v-1536h1024z" />
<glyph unicode="&#xea10;" horiz-adv-x="2048" d="M1280 1536v-1024h-1152q-53 0 -90.5 37.5t-37.5 90.5v768q0 53 37.5 90.5t90.5 37.5h1152zM2048 1237v-426q0 -18 -12.5 -30.5t-30.5 -12.5h-213v-128q0 -53 -37.5 -90.5t-90.5 -37.5h-128v1024h128q53 0 90.5 -37.5t37.5 -90.5v-128h213q18 0 30.5 -12.5t12.5 -30.5z
" />
<glyph unicode="&#xea11;" horiz-adv-x="2048" d="M896 1536v-1024h-768q-53 0 -90.5 37.5t-37.5 90.5v768q0 53 37.5 90.5t90.5 37.5h768zM2048 1237v-426q0 -18 -12.5 -30.5t-30.5 -12.5h-213v-128q0 -53 -37.5 -90.5t-90.5 -37.5h-128v1024h128q53 0 90.5 -37.5t37.5 -90.5v-128h213q18 0 30.5 -12.5t12.5 -30.5z" />
<glyph unicode="&#xea12;" horiz-adv-x="2048" d="M512 1536v-1024h-384q-53 0 -90.5 37.5t-37.5 90.5v768q0 53 37.5 90.5t90.5 37.5h384zM2048 1237v-426q0 -18 -12.5 -30.5t-30.5 -12.5h-213v-128q0 -53 -37.5 -90.5t-90.5 -37.5h-128v1024h128q53 0 90.5 -37.5t37.5 -90.5v-128h213q18 0 30.5 -12.5t12.5 -30.5z" />
<glyph unicode="&#xea13;" horiz-adv-x="2048" d="M256 1536v-1024h-128q-53 0 -90.5 37.5t-37.5 90.5v768q0 53 37.5 90.5t90.5 37.5h128zM2048 1237v-426q0 -18 -12.5 -30.5t-30.5 -12.5h-213v-128q0 -53 -37.5 -90.5t-90.5 -37.5h-128v1024h128q53 0 90.5 -37.5t37.5 -90.5v-128h213q18 0 30.5 -12.5t12.5 -30.5z" />
<glyph unicode="&#xeb00;" horiz-adv-x="2048" d="M2048 768q0 -104 -40.5 -198.5t-109.5 -163.5t-163.5 -109.5t-198.5 -40.5h-431l440 439q19 17 10 47q-11 26 -40 26h-320v431h-342v-431h-320q-29 0 -40 -26q-9 -30 10 -47l440 -439h-495q-185 0 -316.5 131.5t-131.5 316.5q0 168 110 294t274 149v5q0 130 51 248.5
t136.5 204t204 136.5t248.5 51q234 0 411.5 -150t219.5 -376q170 -39 281.5 -178.5t111.5 -319.5z" />
<glyph unicode="&#xeb01;" horiz-adv-x="2048" d="M1877 0h-1706q-18 0 -30.5 12.5t-12.5 30.5v256q0 17 12.5 29.5t30.5 12.5h1706q18 0 30.5 -12.5t12.5 -29.5v-256q0 -18 -12.5 -30.5t-30.5 -12.5zM1908 1377l-853 -853q-17 -12 -31 -12t-31 12l-853 853q-17 17 -10 48q11 26 41 26h469v554q0 18 12.5 30.5t30.5 12.5
h682q18 0 30.5 -12.5t12.5 -30.5v-554h469q30 0 41 -26q7 -31 -10 -48z" />
<glyph unicode="&#xeb40;" horiz-adv-x="2048" d="M2048 768q0 -104 -40.5 -198.5t-109.5 -163.5t-163.5 -109.5t-198.5 -40.5h-341v384h320q29 0 40 26q9 30 -10 47l-521 520l-521 -520q-19 -17 -10 -47q11 -26 40 -26h320v-384h-405q-185 0 -316.5 131.5t-131.5 316.5q0 168 110 294t274 149v5q0 130 51 248.5t136.5 204
t204 136.5t248.5 51q234 0 411.5 -150t219.5 -376q170 -39 281.5 -178.5t111.5 -319.5z" />
<glyph unicode="&#xeb41;" horiz-adv-x="2048" d="M1877 0h-1706q-18 0 -30.5 12.5t-12.5 30.5v256q0 17 12.5 29.5t30.5 12.5h1706q18 0 30.5 -12.5t12.5 -29.5v-256q0 -18 -12.5 -30.5t-30.5 -12.5zM140 1183l853 853q17 12 31 12t31 -12l853 -853q17 -17 10 -48q-11 -26 -41 -26h-469v-554q0 -18 -12.5 -30.5
t-30.5 -12.5h-682q-18 0 -30.5 12.5t-12.5 30.5v554h-469q-30 0 -41 26q-7 31 10 48z" />
<glyph unicode="&#xeb80;" horiz-adv-x="2048" d="M1652 1951l384 -384q12 -17 12 -31t-12 -31l-384 -384q-18 -18 -47 -9q-26 11 -26 40v213h-406q-64 0 -102 -52l-218 -289l218 -289q38 -52 102 -52h406v213q0 29 26 40q29 9 47 -9l384 -384q12 -17 12 -31t-12 -31l-384 -384q-18 -18 -47 -9q-26 11 -26 40v213h-408
q-110 0 -208 49t-164 136l-206 275q-38 52 -102 52h-448q-18 0 -30.5 12.5t-12.5 30.5v256q0 18 12.5 30.5t30.5 12.5h448q64 0 102 52l206 275q66 87 164 136t208 49h408v213q0 29 26 40q29 9 47 -9z" />
<glyph unicode="&#xeb81;" horiz-adv-x="2048" d="M2036 993l-384 -384q-15 -12 -31 -12q-12 0 -16 3q-26 11 -26 40v213h-320q-66 0 -102 -52l-206 -275q-66 -87 -164.5 -136t-208.5 -49h-535q-18 0 -30.5 12.5t-12.5 30.5v256q0 18 12.5 30.5t30.5 12.5h533q64 0 102 52l206 275q2 3 5.5 7.5t6.5 6.5q-3 2 -6.5 7t-5.5 7
l-206 275q-38 52 -102 52h-533q-18 0 -30.5 12.5t-12.5 30.5v256q0 18 12.5 30.5t30.5 12.5h535q110 0 208.5 -49t164.5 -136l206 -275q36 -52 102 -52h320v213q0 29 26 40q29 9 47 -9l384 -384q13 -13 13 -31t-13 -31z" />
<glyph unicode="&#xeb82;" horiz-adv-x="2048" d="M1946 846v0q-42 -215 -173 -388.5t-327.5 -273t-421.5 -99.5q-180 0 -342.5 64.5t-290.5 182.5l-318 -320q-15 -12 -30 -12q-12 0 -17 2q-26 11 -26 41v810q0 18 12.5 30.5t30.5 12.5h810q30 0 41 -26q7 -31 -10 -47l-251 -249q164 -147 391 -147q204 0 363 123t213 315
q8 31 40 31h263q23 0 34 -17q12 -15 9 -33zM102 1202v0q41 215 172 388.5t328 273t422 99.5q180 0 342.5 -64.5t290.5 -182.5l318 320q15 12 30 12q12 0 17 -2q26 -11 26 -41v-810q0 -18 -12.5 -30.5t-30.5 -12.5h-810q-30 0 -41 26q-7 31 10 47l251 249q-164 147 -391 147
q-204 0 -363 -123t-213 -315q-8 -31 -40 -31h-263q-22 0 -34 14q-12 20 -9 36z" />
<glyph unicode="&#xeb83;" horiz-adv-x="2048" d="M1195 1877v-298q0 -71 -50 -121t-121 -50t-121 50t-50 121v298q0 71 50 121t121 50t121 -50t50 -121zM1195 469v-298q0 -71 -50 -121t-121 -50t-121 50t-50 121v298q0 71 50 121t121 50t121 -50t50 -121zM640 1024q0 -71 -50 -121t-121 -50h-298q-71 0 -121 50t-50 121
t50 121t121 50h298q71 0 121 -50t50 -121zM2048 1024q0 -71 -50 -121t-121 -50h-298q-71 0 -121 50t-50 121t50 121t121 50h298q71 0 121 -50t50 -121zM751 1297q-49 -52 -119 -52t-120 52l-213 211q-50 50 -50 120t50 119q51 52 121 52t120 -52l211 -211q52 -50 52 -120
t-52 -119zM1747 299q-49 -50 -119 -50t-120 50l-211 213q-52 50 -52 120t52 119q49 52 119 52t120 -52l211 -211q52 -50 52 -120t-52 -121zM1747 1508l-211 -211q-50 -52 -119.5 -52t-119.5 52q-52 50 -52 119.5t52 119.5l211 211q50 52 120 52t119 -52q52 -49 52 -119
t-52 -120zM751 512l-211 -213q-50 -50 -120 -50t-121 50q-50 51 -50 121t50 120l213 211q50 52 120 52t119 -52q52 -49 52 -119t-52 -120z" />
<glyph unicode="&#xeb84;" horiz-adv-x="2048" d="M2034 1271l-180 -181q-8 -6 -15 -9q-10 -5 -16 -5q-18 0 -29 14q-157 157 -360.5 238.5t-409.5 81.5t-409.5 -81.5t-360.5 -238.5q-11 -14 -29 -14q-6 0 -16 5q-7 3 -15 9l-180 181q-12 12 -12 29t12 30q205 206 472 313t538 107t538 -107t472 -313q12 -13 12 -30
t-12 -29zM1643 877l-180 -180l-15 -10q-4 -2 -16 -2q-19 0 -31 12q-103 102 -240 138.5t-274 0t-240 -138.5q-15 -12 -31 -12q-12 0 -16 2l-15 10l-180 180q-12 13 -12 31t12 31q126 126 289.5 191.5t329.5 65.5t329.5 -65.5t289.5 -191.5q12 -13 12 -31t-12 -31zM1249 486
l-194 -197q-13 -12 -31 -12t-31 12l-197 197q-12 13 -12 30t12 29q62 62 145 84t165.5 0t142.5 -84q13 -12 13 -29t-13 -30z" />
<glyph unicode="&#xeb85;" horiz-adv-x="2048" d="M2048 1707q0 -93 -46.5 -172t-124.5 -125v-386q0 -71 -49.5 -121t-120.5 -50h-387q-45 -78 -124 -124t-172 -46t-172 46t-124 124h-216v-215q78 -46 124.5 -125t46.5 -172q0 -141 -100.5 -241t-241.5 -100q-142 0 -241.5 99.5t-99.5 241.5q0 93 46.5 172t124.5 125v386
q0 71 49.5 121t120.5 50h387q45 78 124 124t172 46t172 -46t124 -124h216v215q-78 46 -124.5 125t-46.5 172q0 141 100 241t242 100q140 0 240.5 -100.5t100.5 -240.5z" />
<glyph unicode="&#xed00;" horiz-adv-x="2048" d="M1920 2005v-298q0 -18 -12.5 -30.5t-30.5 -12.5h-597v-1621q0 -18 -12.5 -30.5t-30.5 -12.5h-426q-18 0 -30.5 12.5t-12.5 30.5v1621h-597q-18 0 -30.5 12.5t-12.5 30.5v298q0 18 12.5 30.5t30.5 12.5h1706q18 0 30.5 -12.5t12.5 -30.5z" />
<glyph unicode="&#xed01;" horiz-adv-x="2048" d="M2046 57q6 -22 -5 -40q-17 -17 -36 -17h-426q-32 0 -41 28l-113 356h-811l-114 -356q-9 -28 -40 -28h-417q-19 0 -36 17q-11 18 -5 40l669 1963q9 28 40 28h626q28 0 40 -28zM735 768h566l-282 889z" />
<glyph unicode="&#xed50;" horiz-adv-x="2048" d="M341 427v-256q0 -18 -12.5 -30.5t-29.5 -12.5h-256q-18 0 -30.5 12.5t-12.5 30.5v256q0 17 12.5 29.5t30.5 12.5h256q17 0 29.5 -12.5t12.5 -29.5zM341 1152v-256q0 -18 -12.5 -30.5t-29.5 -12.5h-256q-18 0 -30.5 12.5t-12.5 30.5v256q0 18 12.5 30.5t30.5 12.5h256
q17 0 29.5 -12.5t12.5 -30.5zM341 1877v-256q0 -17 -12.5 -29.5t-29.5 -12.5h-256q-18 0 -30.5 12.5t-12.5 29.5v256q0 18 12.5 30.5t30.5 12.5h256q17 0 29.5 -12.5t12.5 -30.5zM2048 427v-256q0 -18 -12.5 -30.5t-30.5 -12.5h-1450q-18 0 -30.5 12.5t-12.5 30.5v256
q0 17 12.5 29.5t30.5 12.5h1450q18 0 30.5 -12.5t12.5 -29.5zM2048 1152v-256q0 -18 -12.5 -30.5t-30.5 -12.5h-1450q-18 0 -30.5 12.5t-12.5 30.5v256q0 18 12.5 30.5t30.5 12.5h1450q18 0 30.5 -12.5t12.5 -30.5zM2048 1877v-256q0 -17 -12.5 -29.5t-30.5 -12.5h-1450
q-18 0 -30.5 12.5t-12.5 29.5v256q0 18 12.5 30.5t30.5 12.5h1450q18 0 30.5 -12.5t12.5 -30.5z" />
<glyph unicode="&#xeda0;" horiz-adv-x="2048" d="M597 1365v-1322q0 -18 -12.5 -30.5t-29.5 -12.5h-512q-18 0 -30.5 12.5t-12.5 30.5v1280q0 17 12.5 29.5t30.5 12.5h554zM2048 1323v-1280q0 -18 -12.5 -30.5t-30.5 -12.5h-1194q-18 0 -30.5 12.5t-12.5 30.5v1322h1237q18 0 30.5 -12.5t12.5 -29.5zM2048 2005v-426
q0 -18 -12.5 -30.5t-30.5 -12.5h-1962q-18 0 -30.5 12.5t-12.5 30.5v426q0 18 12.5 30.5t30.5 12.5h1962q18 0 30.5 -12.5t12.5 -30.5z" />
<glyph unicode="&#xee00;" horiz-adv-x="2048" d="M1408 569l256 175v-275q0 -105 -75.5 -180.5t-180.5 -75.5h-1152q-105 0 -180.5 75.5t-75.5 180.5v1024q0 105 75.5 180.5t180.5 75.5h725v-104q-233 -36 -393 -152h-332v-1024h1152v100zM2029 1273q19 -16 19 -36q0 -24 -19 -35l-811 -555q-10 -7 -23 -7q-12 0 -19 5
q-24 11 -24 38v301q-138 -3 -254 -23.5t-180.5 -43t-117.5 -54.5t-67 -45t-26 -27l-2 -2q-11 -21 -36 -21h-9q-30 8 -33 40q0 289 170 467q192 205 555 216v301q0 27 24 38q23 13 42 -2z" />
<glyph unicode="&#xee01;" horiz-adv-x="2048" d="M2048 1067q0 -18 -12.5 -30.5t-30.5 -12.5h-938q-18 0 -30.5 12.5t-12.5 30.5v938q0 30 26 41q31 7 47 -10l287 -289l289 289q13 13 30 13t30 -13l303 -303q13 -13 13 -30t-13 -30l-289 -289l287 -287q14 -11 14 -30zM0 981q0 18 12.5 30.5t30.5 12.5h938
q18 0 30.5 -12.5t12.5 -30.5v-938q0 -30 -26 -41q-31 -7 -47 10l-287 289l-289 -289q-13 -13 -30 -13t-30 13l-303 303q-13 13 -13 30t13 30l289 289l-287 287q-14 11 -14 30z" />
<glyph unicode="&#xee02;" horiz-adv-x="2048" d="M1792 2005v-1962q0 -18 -12.5 -30.5t-30.5 -12.5h-1450q-18 0 -30.5 12.5t-12.5 30.5v810h384v-320q0 -29 26 -40q24 -10 47 10l520 521l-520 521q-22 18 -47 8q-26 -8 -26 -38v-320h-384v810q0 18 12.5 30.5t30.5 12.5h1450q18 0 30.5 -12.5t12.5 -30.5z" />
<glyph unicode="&#xf000;" horiz-adv-x="2048" d="M1024 2048q209 0 398.5 -81t326.5 -218t218 -326.5t81 -398.5t-81 -398.5t-218 -326.5t-326.5 -218t-398.5 -81t-398.5 81t-326.5 218t-218 326.5t-81 398.5t81 398.5t218 326.5t326.5 218t398.5 81zM1024 1280l-166 -858q-5 -30 -5 -38q0 -71 50 -121t121 -50t121 50
t50 121v896h-171zM1579 1024h256q0 165 -64 315t-173 259t-259 173t-315 64q-162 0 -310.5 -62.5t-257 -168.5t-174 -253t-69.5 -308q5 181 97.5 333.5t248 241.5t337.5 89q185 0 342.5 -91.5t249 -249t91.5 -342.5z" />
<glyph unicode="&#xf070;" horiz-adv-x="2048" d="M1920 2048q53 0 90.5 -37.5t37.5 -90.5v-1792q0 -53 -37.5 -90.5t-90.5 -37.5h-1792q-53 0 -90.5 37.5t-37.5 90.5v1792q0 53 37.5 90.5t90.5 37.5h171v-256q0 -53 37.5 -90.5t90.5 -37.5t90.5 37.5t37.5 90.5v256h938v-256q0 -53 37.5 -90.5t90.5 -37.5t90.5 37.5
t37.5 90.5v256h171zM1451 640v256h-299v299h-256v-299h-299v-256h299v-299h256v299h299z" />
<glyph unicode="&#xf071;" horiz-adv-x="2048" d="M1920 2048q53 0 90.5 -37.5t37.5 -90.5v-1792q0 -53 -37.5 -90.5t-90.5 -37.5h-1792q-53 0 -90.5 37.5t-37.5 90.5v1792q0 53 37.5 90.5t90.5 37.5h171v-256q0 -53 37.5 -90.5t90.5 -37.5t90.5 37.5t37.5 90.5v256h938v-256q0 -53 37.5 -90.5t90.5 -37.5t90.5 37.5
t37.5 90.5v256h171zM1451 640v256h-854v-256h854z" />
<glyph unicode="&#xf072;" horiz-adv-x="2048" d="M1920 2048q53 0 90.5 -37.5t37.5 -90.5v-1792q0 -53 -37.5 -90.5t-90.5 -37.5h-1792q-53 0 -90.5 37.5t-37.5 90.5v1792q0 53 37.5 90.5t90.5 37.5h171v-256q0 -53 37.5 -90.5t90.5 -37.5t90.5 37.5t37.5 90.5v256h938v-256q0 -53 37.5 -90.5t90.5 -37.5t90.5 37.5
t37.5 90.5v256h171zM896 332l687 687l-180 180l-507 -507l-251 251l-180 -180z" />
<glyph unicode="&#xf073;" horiz-adv-x="2048" d="M1920 2048q53 0 90.5 -37.5t37.5 -90.5v-1792q0 -53 -37.5 -90.5t-90.5 -37.5h-1792q-53 0 -90.5 37.5t-37.5 90.5v1792q0 53 37.5 90.5t90.5 37.5h171v-256q0 -53 37.5 -90.5t90.5 -37.5t90.5 37.5t37.5 90.5v256h938v-256q0 -53 37.5 -90.5t90.5 -37.5t90.5 37.5
t37.5 90.5v256h171zM1408 555l-213 213l213 213l-171 171l-213 -213l-213 213l-171 -171l213 -213l-213 -213l171 -171l213 213l213 -213z" />
<glyph unicode="&#xf4c0;" horiz-adv-x="2048" d="M2008 339q40 -55 40 -126q0 -89 -62 -151t-151 -62h-1622q-59 0 -110 30.5t-79 83.5q-27 52 -23.5 111t35.5 107l647 953v720q0 18 12.5 30.5t29.5 12.5h598q17 0 29.5 -12.5t12.5 -30.5v-720zM768 341q71 0 121 50t50 121t-50 121t-121 50t-121 -50t-50 -121t50 -121
t121 -50zM1152 768q53 0 90.5 37.5t37.5 90.5t-37.5 90.5t-90.5 37.5t-90.5 -37.5t-37.5 -90.5t37.5 -90.5t90.5 -37.5z" />
<glyph unicode="&#xf500;" horiz-adv-x="2048" d="M0 683q0 15 12 30l981 982q13 12 31 12t31 -12l981 -982q13 -12 13 -30.5t-13 -30.5l-299 -299q-12 -12 -30.5 -12t-30.5 12l-652 652l-652 -652q-12 -12 -30.5 -12t-30.5 12l-299 299q-12 15 -12 31z" />
<glyph unicode="&#xf501;" horiz-adv-x="2048" d="M2048 1365q0 -15 -12 -30l-981 -982q-13 -12 -31 -12t-31 12l-981 982q-13 12 -13 30.5t13 30.5l299 299q12 12 30.5 12t30.5 -12l652 -654l652 654q12 12 30.5 12t30.5 -12l299 -299q12 -15 12 -31z" />
<glyph unicode="&#xf600;" horiz-adv-x="2048" d="M1600 299q0 -18 -12.5 -30.5t-30.5 -12.5h-917q-160 0 -272 112t-112 272v384h-213q-30 0 -41 26q-7 31 10 47l384 384q12 13 30.5 13t30.5 -13l384 -384q19 -17 10 -47q-11 -26 -40 -26h-214v-384q0 -18 12.5 -30.5t30.5 -12.5h661q21 0 31 -12l259 -258q9 -9 9 -28z
M2036 951l-384 -384q-14 -12 -31 -12q-16 0 -30 12l-384 384q-19 17 -10 47q11 26 40 26h214v384q0 18 -12.5 30.5t-30.5 12.5h-661q-21 0 -31 12l-259 258q-9 9 -9 28q0 18 12.5 30.5t30.5 12.5h917q158 0 271 -113t113 -271v-384h213q30 0 41 -26q7 -31 -10 -47z" />
<glyph unicode="&#x1f304;" horiz-adv-x="2048" d="M1920 1792q53 0 90.5 -37.5t37.5 -90.5v-1280q0 -53 -37.5 -90.5t-90.5 -37.5h-1792q-53 0 -90.5 37.5t-37.5 90.5v1280q0 53 37.5 90.5t90.5 37.5h1792zM448 1536q-80 0 -136 -56t-56 -136t56 -136t136 -56t136 56t56 136t-56 136t-136 56zM1792 512l-512 768l-469 -597
l-299 213l-256 -384h1536z" />
<glyph unicode="&#x1f30e;" horiz-adv-x="2048" d="M1024 2048q209 0 398.5 -81t326.5 -218t218 -326.5t81 -398.5t-81 -398.5t-218 -326.5t-326.5 -218t-398.5 -81t-398.5 81t-326.5 218t-218 326.5t-81 398.5t81 398.5t218 326.5t326.5 218t398.5 81zM1152 213q49 0 114 39t125.5 104t102.5 164t42 205q0 125 -87 212
t-212 87h-170q-95 0 -154.5 42.5t-59.5 106.5q0 45 31.5 76t75.5 31q29 0 50.5 -13.5t33 -29t28.5 -29t37 -13.5q36 0 61 25t25 60q0 39 -13.5 72t-27.5 50.5t-40 43.5q78 146 81 334q0 16 -10 28.5t-26 14.5q-77 12 -135 12q-274 -9 -435.5 -133.5t-161.5 -336.5
q0 -126 63.5 -234t171.5 -171.5t234 -63.5h7q-7 -29 -7 -64q0 -97 60 -173t153 -97v-306q0 -18 12.5 -30.5t30.5 -12.5z" />
<glyph unicode="&#x1f3a4;" horiz-adv-x="2048" d="M640 1195v469q0 159 112.5 271.5t271.5 112.5q158 0 271 -113t113 -271v-469q0 -160 -112.5 -272t-271.5 -112q-160 0 -272 112t-112 272zM1835 1195q0 -198 -90 -371.5t-246 -286.5t-347 -144v-350q0 -18 -12.5 -30.5t-30.5 -12.5h-170q-18 0 -30.5 12.5t-12.5 30.5v350
q-191 31 -347 144t-246 286.5t-90 371.5q0 53 37.5 90.5t90.5 37.5t90.5 -37.5t37.5 -90.5q0 -150 74.5 -278t202.5 -202.5t278 -74.5t278 74.5t202.5 202.5t74.5 278q0 53 37.5 90.5t90.5 37.5t90.5 -37.5t37.5 -90.5z" />
<glyph unicode="&#x1f3e2;" horiz-adv-x="2048" d="M555 0q17 0 29.5 12.5t12.5 30.5v1194q0 18 -12.5 30.5t-29.5 12.5h-512q-18 0 -30.5 -12.5t-12.5 -30.5v-1194q0 -18 12.5 -30.5t30.5 -12.5h512zM2005 2048q18 0 30.5 -12.5t12.5 -30.5v-1962q0 -18 -12.5 -30.5t-30.5 -12.5h-469v384h-256v-384h-469q-18 0 -30.5 12.5
t-12.5 30.5v1962q0 18 12.5 30.5t30.5 12.5h1194zM1280 768v256h-256v-256h256zM1280 1408v256h-256v-256h256zM1792 768v256h-256v-256h256zM1792 1408v256h-256v-256h256z" />
<glyph unicode="&#x1f440;" horiz-adv-x="2048" d="M2041 1048q14 -24 0 -48q-9 -14 -26 -37.5t-74.5 -92t-119 -131t-155.5 -138.5t-189 -130.5t-215 -92t-238 -37.5q-92 0 -186 22.5t-175 60.5t-158.5 87.5t-141.5 104t-121 109.5t-99.5 104.5t-73.5 87.5t-47 61l-15 22q-14 24 0 48q9 14 26 37.5t74.5 92t119 131
t155.5 138.5t189 130.5t215 92t238 37.5t237 -36t216 -93.5t186.5 -127t156 -139t116 -127t74.5 -93.5l26 -36zM1024 640q159 0 271.5 112.5t112.5 271.5q0 158 -113 271t-271 113q-159 0 -271.5 -112.5t-112.5 -271.5q0 -160 112 -272t272 -112z" />
<glyph unicode="&#x1f44d;" horiz-adv-x="2048" d="M341 43q0 -18 -12.5 -30.5t-29.5 -12.5h-256q-18 0 -30.5 12.5t-12.5 30.5v1194q0 18 12.5 30.5t30.5 12.5h256q17 0 29.5 -12.5t12.5 -30.5v-1194zM2048 747q0 -58 -30.5 -105t-80.5 -71q26 -50 26 -102q0 -69 -40.5 -124.5t-104.5 -76.5q17 -34 17 -76q0 -80 -56 -136
t-136 -56h-448q-53 0 -124 15.5t-120 36.5l-439 204v896q153 102 259 187t172.5 156t103 143t49.5 136t13 146q0 53 37.5 90.5t90.5 37.5q36 0 73 -25.5t67 -69.5q74 -102 74 -246q0 -72 -20.5 -164t-40.5 -148t-22 -56q-7 -21 4 -40q13 -19 36 -19h448q80 0 136 -56
t56 -136q0 -54 -29 -100.5t-75 -70.5q47 -25 75.5 -70.5t28.5 -99.5z" />
<glyph unicode="&#x1f44e;" horiz-adv-x="2048" d="M341 2005v-1194q0 -18 -12.5 -30.5t-29.5 -12.5h-256q-18 0 -30.5 12.5t-12.5 30.5v1194q0 18 12.5 30.5t30.5 12.5h256q17 0 29.5 -12.5t12.5 -30.5zM2048 1301q0 -54 -29 -100.5t-75 -69.5q47 -26 75.5 -71.5t28.5 -99.5q0 -80 -56 -136t-136 -56h-448q-23 0 -36 -19
q-11 -19 -4 -40q4 -6 22.5 -58.5t39.5 -145t21 -164.5q0 -143 -74 -249q-66 -92 -140 -92q-53 0 -90.5 37.5t-37.5 90.5q0 82 -13 146t-49.5 136t-103 143t-172.5 156t-259 187v896l439 204q49 21 120 36.5t124 15.5h448q80 0 136 -56t56 -136q0 -42 -17 -76
q64 -21 104.5 -76.5t40.5 -124.5q0 -57 -26 -102q50 -24 80.5 -71t30.5 -105z" />
<glyph unicode="&#x1f464;" horiz-adv-x="2048" d="M2048 128v-85q0 -18 -12.5 -30.5t-30.5 -12.5h-1962q-18 0 -30.5 12.5t-12.5 30.5v85q0 87 42.5 154t110 109t149.5 76.5t164 66t149.5 66.5t110 88.5t42.5 122.5q-10 10 -27.5 30.5t-61.5 90t-78 147t-61.5 202t-27.5 255.5q0 104 40.5 198.5t109.5 163.5t163.5 109.5
t198.5 40.5t198.5 -40.5t163.5 -109.5t109.5 -163.5t40.5 -198.5q0 -96 -14 -187.5t-36.5 -161.5t-50 -132.5t-55 -106t-50 -75.5t-36.5 -47l-14 -15q0 -69 42.5 -122.5t110 -88.5t149.5 -66.5t164 -66t149.5 -76.5t110 -109t42.5 -154z" />
<glyph unicode="&#x1f465;" horiz-adv-x="2048" d="M2048 640v-85q0 -18 -12.5 -30.5t-30.5 -12.5h-820q-45 15 -80.5 32.5t-48.5 27.5l-13 11q6 9 16.5 26.5t36.5 75.5t46 120.5t36.5 157t16.5 189.5q0 69 -17 135t-41 110t-48 78.5t-41 50.5l-17 17v2q-7 53 -7 119q0 159 112.5 271.5t271.5 112.5q158 0 271 -113
t113 -271q0 -99 -17.5 -191.5t-43 -154t-50.5 -108.5t-43 -69l-17 -22q0 -54 23.5 -94t61 -65t83 -46.5t91.5 -44t83.5 -50t61 -73t23.5 -106.5zM1280 128v-85q0 -18 -12.5 -30.5t-30.5 -12.5h-1194q-18 0 -30.5 12.5t-12.5 30.5v85q0 60 23.5 105.5t61 73t83.5 50t91.5 44
t83 46.5t61 65.5t23.5 94.5q-7 8 -18.5 23t-41 67t-52 110.5t-41 152t-18.5 192.5q0 159 112.5 271.5t271.5 112.5q158 0 271 -113t113 -271q0 -99 -17.5 -191.5t-43 -154t-50.5 -108.5t-43 -69l-17 -22q0 -54 23.5 -94t61 -65t83 -46.5t91.5 -44t83.5 -50t61 -73
t23.5 -106.5z" />
<glyph unicode="&#x1f467;" horiz-adv-x="2048" d="M2048 128v-85q0 -18 -12.5 -30.5t-30.5 -12.5h-1962q-18 0 -30.5 12.5t-12.5 30.5v85q0 87 42.5 154t110 109t149.5 76.5t164 66t149.5 66.5t110 88.5t42.5 122.5q-72 0 -138 17.5t-108.5 42.5t-75.5 50t-48 43l-14 17q5 4 13.5 12.5t31 48.5t39 95.5t30.5 161.5t14 237
q0 104 40.5 198.5t109.5 163.5t163.5 109.5t198.5 40.5t198.5 -40.5t163.5 -109.5t109.5 -163.5t40.5 -198.5q0 -131 13 -236.5t32 -162.5t38 -95t32 -50l13 -11q-5 -7 -15.5 -18.5t-46 -40.5t-76.5 -51.5t-107.5 -41t-138.5 -18.5q0 -69 42.5 -122.5t110 -88.5t149.5 -66.5
t164 -66t149.5 -76.5t110 -109t42.5 -154z" />
<glyph unicode="&#x1f4a1;" horiz-adv-x="2048" d="M341 1365q0 185 91.5 342.5t249 249t342.5 91.5t342.5 -91.5t249 -249t91.5 -342.5q0 -95 -23.5 -181t-61 -151t-83 -126t-91.5 -116.5t-83.5 -110t-61 -119.5t-23.5 -134h-512q0 69 -23.5 134t-61 119.5t-83.5 110t-91.5 116.5t-83 126t-61 151t-23.5 181zM1280 256
v-128q0 -53 -37.5 -90.5t-90.5 -37.5h-256q-53 0 -90.5 37.5t-37.5 90.5v128h512z" />
<glyph unicode="&#x1f4a7;" horiz-adv-x="2048" d="M1024 0q-185 0 -342.5 91.5t-249 249t-91.5 342.5q0 184 88 334l557 1010q12 21 38 21t38 -21l557 -1010q88 -158 88 -334q0 -185 -91.5 -342.5t-249 -249t-342.5 -91.5z" />
<glyph unicode="&#x1f4ac;" horiz-adv-x="2048" d="M2048 1088q0 -169 -81 -323.5t-218 -265.5t-326.5 -177t-398.5 -66q-80 0 -173 12q-268 -268 -552 -268q-30 0 -41 26q-7 31 10 47l2 2q96 107 136 260q10 39 16 80q-196 116 -309 292.5t-113 380.5q0 169 81 323.5t218 265.5t326.5 177t398.5 66t398.5 -66t326.5 -177
t218 -265.5t81 -323.5z" />
<glyph unicode="&#x1f4b2;" horiz-adv-x="2048" d="M1024 2048q209 0 398.5 -81t326.5 -218t218 -326.5t81 -398.5t-81 -398.5t-218 -326.5t-326.5 -218t-398.5 -81t-398.5 81t-326.5 218t-218 326.5t-81 398.5t81 398.5t218 326.5t326.5 218t398.5 81zM1152 393q75 12 139.5 38t121.5 69.5t90 112t33 155.5q0 89 -26.5 155
t-70.5 104t-102 63t-121.5 36t-127 17.5t-121.5 13.5t-102 19t-70.5 37.5t-26.5 66.5q0 60 76 94t180 34q169 0 341 -85l128 213q-5 4 -14.5 10t-42.5 23.5t-70 32.5t-95 31t-119 24v135h-256v-137q-75 -12 -139.5 -38t-121.5 -69.5t-90 -112t-33 -155.5q0 -89 26.5 -155
t70.5 -104t102 -63t121.5 -36t127 -17.5t121.5 -13.5t102 -19t70.5 -37.5t26.5 -66.5q0 -60 -76 -94t-180 -34q-169 0 -341 85l-128 -213q5 -4 14.5 -10t42.5 -23.5t70 -32.5t95 -31t119 -24v-135h256v137z" />
<glyph unicode="&#x1f4b3;" horiz-adv-x="2048" d="M2048 1664v-128h-2048v128q0 53 37.5 90.5t90.5 37.5h1792q53 0 90.5 -37.5t37.5 -90.5zM0 1152h2048v-768q0 -53 -37.5 -90.5t-90.5 -37.5h-1792q-53 0 -90.5 37.5t-37.5 90.5v768z" />
<glyph unicode="&#x1f4bb;" horiz-adv-x="2048" d="M1920 2048q53 0 90.5 -37.5t37.5 -90.5v-1408q0 -53 -37.5 -90.5t-90.5 -37.5h-640v-123l358 -180q26 -8 26 -38q0 -18 -12.5 -30.5t-30.5 -12.5h-1194q-14 0 -26.5 9.5t-16.5 23.5q-4 34 24 48l360 180v123h-640q-53 0 -90.5 37.5t-37.5 90.5v1408q0 53 37.5 90.5
t90.5 37.5h1792zM1792 640v1152h-1536v-1152h1536z" />
<glyph unicode="&#x1f4bc;" horiz-adv-x="2048" d="M1920 1664q53 0 90.5 -37.5t37.5 -90.5v-1152q0 -53 -37.5 -90.5t-90.5 -37.5h-1792q-53 0 -90.5 37.5t-37.5 90.5v1152q0 53 37.5 90.5t90.5 37.5h512v213q0 97 102 135q89 36 282 36q194 0 282 -36q102 -38 102 -135v-213h512zM853 1835v-171h342v171h-342z" />
<glyph unicode="&#x1f4c1;" horiz-adv-x="2048" d="M0 384v1280q0 53 37.5 90.5t90.5 37.5h740q28 0 55.5 -20.5t36.5 -48.5l64 -187h896q53 0 90.5 -37.5t37.5 -90.5v-1024q0 -53 -37.5 -90.5t-90.5 -37.5h-1792q-53 0 -90.5 37.5t-37.5 90.5z" />
<glyph unicode="&#x1f4c4;" horiz-adv-x="2048" d="M1792 1365v-1237q0 -53 -37.5 -90.5t-90.5 -37.5h-1280q-53 0 -90.5 37.5t-37.5 90.5v1792q0 53 37.5 90.5t90.5 37.5h725q16 0 31 -12l640 -640q12 -15 12 -31z" />
<glyph unicode="&#x1f4c5;" horiz-adv-x="2048" d="M1920 2048q53 0 90.5 -37.5t37.5 -90.5v-1792q0 -53 -37.5 -90.5t-90.5 -37.5h-1792q-53 0 -90.5 37.5t-37.5 90.5v1792q0 53 37.5 90.5t90.5 37.5h171v-256q0 -53 37.5 -90.5t90.5 -37.5t90.5 37.5t37.5 90.5v256h938v-256q0 -53 37.5 -90.5t90.5 -37.5t90.5 37.5
t37.5 90.5v256h171zM640 299v341h-341v-341h341zM640 896v341h-341v-341h341zM1195 299v341h-342v-341h342zM1195 896v341h-342v-341h342zM1749 299v341h-341v-341h341zM1749 896v341h-341v-341h341z" />
<glyph unicode="&#x1f4ca;" horiz-adv-x="2048" d="M811 2048h426q18 0 30.5 -12.5t12.5 -30.5v-1962q0 -18 -12.5 -30.5t-30.5 -12.5h-426q-18 0 -30.5 12.5t-12.5 30.5v1962q0 18 12.5 30.5t30.5 12.5zM43 1024h426q18 0 30.5 -12.5t12.5 -30.5v-938q0 -18 -12.5 -30.5t-30.5 -12.5h-426q-18 0 -30.5 12.5t-12.5 30.5v938
q0 18 12.5 30.5t30.5 12.5zM1579 1536h426q18 0 30.5 -12.5t12.5 -30.5v-1450q0 -18 -12.5 -30.5t-30.5 -12.5h-426q-18 0 -30.5 12.5t-12.5 30.5v1450q0 18 12.5 30.5t30.5 12.5z" />
<glyph unicode="&#x1f4cd;" horiz-adv-x="2048" d="M1024 683q-73 0 -128 9v-607q0 -3 1 -9t7.5 -20.5t18.5 -26t38.5 -20.5t62.5 -9t62.5 9t38.5 21t18.5 24.5t7.5 21.5l1 9v607q-55 -9 -128 -9zM1024 2048q121 0 231.5 -47.5t190.5 -127.5t127.5 -190.5t47.5 -231.5q0 -122 -47.5 -232.5t-127.5 -190.5t-190.5 -127.5
t-231.5 -47.5t-231.5 47.5t-190.5 127.5t-127.5 190.5t-47.5 232.5q0 121 47.5 231.5t127.5 190.5t190.5 127.5t231.5 47.5zM1173 1408q80 0 136 56t56 136t-56 136t-136 56t-136 -56t-56 -136t56 -136t136 -56z" />
<glyph unicode="&#x1f4ce;" horiz-adv-x="2048" d="M1697 1275l7 7q87 88 87 211.5t-87 210.5t-210.5 87t-211.5 -87l-938 -938q-87 -88 -87 -211.5t87 -210.5t210.5 -87t211.5 87l576 573q25 25 25 60.5t-25 60.5q-26 25 -61 25t-60 -25l-363 -360q-38 -39 -90 -39t-90 39q-39 38 -39 90t39 90l360 363q101 99 242.5 99
t241.5 -99q100 -101 100 -242.5t-100 -241.5l-576 -576q-106 -106 -249 -144t-286 0t-250 144q-106 107 -144 250t0 286t144 249l939 938q107 108 250 146t285.5 0t248.5 -146q108 -106 146 -248.5t0 -285.5t-146 -250l-92 -93q-8 145 -95 268z" />
<glyph unicode="&#x1f4d3;" horiz-adv-x="2048" d="M1792 2048q53 0 90.5 -37.5t37.5 -90.5v-1792q0 -53 -37.5 -90.5t-90.5 -37.5h-1280q-53 0 -90.5 37.5t-37.5 90.5v128h-213q-18 0 -30.5 12.5t-12.5 30.5v170q0 18 12.5 30.5t30.5 12.5h213v384h-213q-18 0 -30.5 12.5t-12.5 30.5v170q0 18 12.5 30.5t30.5 12.5h213v384
h-213q-18 0 -30.5 12.5t-12.5 30.5v170q0 18 12.5 30.5t30.5 12.5h213v128q0 53 37.5 90.5t90.5 37.5h1280zM1536 1152v384h-768v-384h768z" />
<glyph unicode="&#x1f4d5;" horiz-adv-x="2048" d="M1792 2005v-213h-1280v-256h1237q18 0 30.5 -12.5t12.5 -30.5v-1450q0 -18 -12.5 -30.5t-30.5 -12.5h-1237q-106 0 -181 75t-75 181v1536q0 106 75 181t181 75h1237q18 0 30.5 -12.5t12.5 -30.5z" />
<glyph unicode="&#x1f4d6;" horiz-adv-x="2048" d="M896 0q-14 0 -31 12q-92 92 -211 164t-220 109t-197 61.5t-142.5 31t-56.5 6.5q-16 2 -27 14.5t-11 28.5v1578q0 20 14 31q8 12 31 12q9 0 43.5 -4.5t111 -21t153.5 -40.5q354 -110 574 -330q12 -15 12 -31v-1578q0 -28 -26 -41q-5 -2 -17 -2zM1152 0q-12 0 -17 2
q-26 11 -26 41v1578q0 16 12 31q228 223 574 330q77 24 153.5 40.5t110.5 21t42 4.5q16 0 33 -12q14 -11 14 -31v-1578q0 -17 -11.5 -29.5t-28.5 -13.5q-10 0 -56.5 -6.5t-142.5 -31t-196.5 -61.5t-219.5 -109t-210 -164q-17 -12 -31 -12z" />
<glyph unicode="&#x1f4dd;" horiz-adv-x="2048" d="M2036 1737l-116 -116l-299 299l116 116q13 13 30 13t30 -13l239 -239q13 -13 13 -30t-13 -30zM1408 853v-597h-1152v1280h725l256 256h-981q-105 0 -180.5 -75.5t-75.5 -180.5v-1280q0 -105 75.5 -180.5t180.5 -75.5h1152q105 0 180.5 75.5t75.5 180.5v853zM1493 1792
l-891 -891q-7 -11 -7 -12l-171 -410l-2 -3q-8 -22 12 -42q10 -14 28 -14q3 0 7.5 1t6.5 1l3 2l410 171q1 0 12 7l891 891z" />
<glyph unicode="&#x1f4de;" horiz-adv-x="2048" d="M2048 1804q0 -10 -2 -17q-29 -230 -108.5 -447t-199.5 -403.5t-280 -347t-347 -280t-403.5 -199t-446.5 -108.5q-7 -2 -17 -2q-12 0 -16 2q-14 6 -24 24l-202 507q-5 16 1.5 31.5t20.5 23.5l559 280q25 13 50 -8l272 -275q340 210 555 558l-272 272q-21 25 -8 50l280 559
q8 14 23.5 20.5t31.5 1.5l507 -202q18 -10 21 -24q5 -7 5 -16z" />
<glyph unicode="&#x1f4e0;" horiz-adv-x="2048" d="M2048 128q0 -53 -37.5 -90.5t-90.5 -37.5h-1792q-53 0 -90.5 37.5t-37.5 90.5v1024q0 53 37.5 90.5t90.5 37.5h213v-427h1366v427h213q53 0 90.5 -37.5t37.5 -90.5v-1024zM1792 384q0 53 -37.5 90.5t-90.5 37.5t-90.5 -37.5t-37.5 -90.5t37.5 -90.5t90.5 -37.5t90.5 37.5
t37.5 90.5zM512 1024v981q0 18 12.5 30.5t30.5 12.5h938q18 0 30.5 -12.5t12.5 -30.5v-981h-1024z" />
<glyph unicode="&#x1f4e5;" horiz-adv-x="2048" d="M2046 787q2 -7 2 -19v-640q0 -53 -37.5 -90.5t-90.5 -37.5h-1792q-53 0 -90.5 37.5t-37.5 90.5v640q0 12 2 19l171 1152q5 46 41.5 77.5t84.5 31.5h1450q48 0 83 -31t43 -78zM410 1792l-152 -1024h418q29 0 40 -26l83 -204q11 -26 40 -26h370q29 0 40 26l83 204
q11 26 40 26h418l-152 1024h-1228z" />
<glyph unicode="&#x1f4e6;" horiz-adv-x="2048" d="M2041 1448q7 -17 7 -40v-1280q0 -53 -37.5 -90.5t-90.5 -37.5h-1792q-53 0 -90.5 37.5t-37.5 90.5v1280q0 23 7 40l171 512q12 39 46 63.5t75 24.5h1450q41 0 75 -24.5t46 -63.5zM263 1408h1522l-128 384h-1266z" />
<glyph unicode="&#x1f4f0;" horiz-adv-x="2048" d="M2005 1920q18 0 30.5 -12.5t12.5 -30.5v-1493q0 -106 -75 -181t-181 -75h-1536q-106 0 -181 75t-75 181v1237q0 18 12.5 30.5t30.5 12.5h170v-1237q0 -36 25 -61t61 -25q35 0 60 25t25 61v1450q0 18 12.5 30.5t30.5 12.5h1578zM1792 1152v384h-768v-384h768z" />
<glyph unicode="&#x1f4f1;" horiz-adv-x="2048" d="M1536 2048q53 0 90.5 -37.5t37.5 -90.5v-1792q0 -53 -37.5 -90.5t-90.5 -37.5h-1024q-53 0 -90.5 37.5t-37.5 90.5v1792q0 53 37.5 90.5t90.5 37.5h1024zM1024 128q53 0 90.5 37.5t37.5 90.5t-37.5 90.5t-90.5 37.5t-90.5 -37.5t-37.5 -90.5t37.5 -90.5t90.5 -37.5z
M1451 512v1195h-854v-1195h854z" />
<glyph unicode="&#x1f4f7;" horiz-adv-x="2048" d="M1920 1536q53 0 90.5 -37.5t37.5 -90.5v-1024q0 -53 -37.5 -90.5t-90.5 -37.5h-1792q-53 0 -90.5 37.5t-37.5 90.5v1024q0 53 37.5 90.5t90.5 37.5h384l62 187q11 29 37.5 49t56.5 20h712q28 0 55.5 -20.5t36.5 -48.5l64 -187h384zM1024 512q159 0 271.5 112.5
t112.5 271.5q0 158 -113 271t-271 113q-159 0 -271.5 -112.5t-112.5 -271.5q0 -160 112 -272t272 -112z" />
<glyph unicode="&#x1f4f9;" horiz-adv-x="2048" d="M2048 1621v-1194q0 -30 -26 -41q-5 -2 -17 -2q-15 0 -30 12l-439 441v-325q0 -53 -37.5 -90.5t-90.5 -37.5h-1280q-53 0 -90.5 37.5t-37.5 90.5v1024q0 53 37.5 90.5t90.5 37.5h1280q53 0 90.5 -37.5t37.5 -90.5v-325l439 441q16 17 47 10q26 -11 26 -41z" />
<glyph unicode="&#x1f500;" horiz-adv-x="2048" d="M697 1458l-213 -285l-105 140q-36 52 -102 52h-234q-18 0 -30.5 12.5t-12.5 30.5v256q0 18 12.5 30.5t30.5 12.5h237q110 0 208 -49t164 -136zM2036 481l-384 -384q-15 -12 -31 -12q-12 0 -16 3q-26 11 -26 40v213h-237q-110 0 -208.5 49t-164.5 136l-47 64l213 285
l107 -140q38 -52 102 -52h235v213q0 29 26 40q29 9 47 -9l384 -384q13 -13 13 -31t-13 -31zM2036 1505l-384 -384q-15 -12 -31 -12q-12 0 -16 3q-26 11 -26 40v213h-235q-64 0 -102 -52l-590 -787q-66 -87 -164 -136t-208 -49h-237q-18 0 -30.5 12.5t-12.5 30.5v256
q0 18 12.5 30.5t30.5 12.5h234q66 0 102 52l590 787q66 87 164.5 136t208.5 49h237v213q0 29 26 40q29 9 47 -9l384 -384q13 -13 13 -31t-13 -31z" />
<glyph unicode="&#x1f501;" horiz-adv-x="2048" d="M1609 1567q13 -13 13 -31t-13 -31l-384 -384q-16 -18 -47 -9q-26 11 -26 40v213h-469q-142 0 -242 -100t-100 -241q0 -117 74 -211q21 -30 -3 -57l-184 -182q-10 -12 -29 -12q-20 0 -31 14q-168 195 -168 448q0 185 91.5 342.5t249 249t342.5 91.5h469v213q0 29 26 40
q31 9 47 -9zM439 481q-13 13 -13 31t13 31l384 384q16 18 47 9q26 -11 26 -40v-213h469q141 0 241.5 99.5t100.5 241.5q0 117 -74 211q-10 13 -9 28t12 26l184 185q10 12 29 12q20 0 31 -14q168 -195 168 -448q0 -185 -91.5 -342.5t-249 -249t-342.5 -91.5h-469v-213
q0 -29 -26 -40q-31 -9 -47 9z" />
<glyph unicode="&#x1f508;" horiz-adv-x="2048" d="M1408 1835v-1622q0 -29 -26 -40q-30 -9 -47 10l-458 457h-322q-18 0 -30.5 12.5t-12.5 30.5v682q0 18 12.5 30.5t30.5 12.5h322l458 457q17 19 47 10q26 -11 26 -40z" />
<glyph unicode="&#x1f509;" horiz-adv-x="2048" d="M1553 345q-12 -13 -29.5 -13t-30.5 13l-121 121q-12 13 -12 30.5t12 29.5q135 135 183 316.5t0 363t-183 316.5q-12 12 -12 29.5t12 30.5l121 121q13 13 30.5 13t29.5 -13q138 -138 210 -317.5t72 -361.5t-72 -361.5t-210 -317.5zM1109 171q-18 0 -30 12l-457 457h-323
q-18 0 -30.5 12.5t-12.5 30.5v682q0 18 12.5 30.5t30.5 12.5h323l457 457q21 21 47 9q26 -10 26 -39v-1622q0 -29 -26 -39q-9 -3 -17 -3z" />
<glyph unicode="&#x1f50a;" horiz-adv-x="2048" d="M1569 13l-121 121q-12 13 -12 30.5t12 29.5q135 135 220 303.5t110 347.5t0 358t-110 347.5t-220 303.5q-12 12 -12 29.5t12 30.5l121 121q13 12 30.5 12t29.5 -12q137 -138 232 -305t140.5 -343t45.5 -363t-45.5 -363t-140.5 -343t-232 -305q-12 -12 -29.5 -12t-30.5 12
zM1297 345q-12 -13 -29.5 -13t-30.5 13l-121 121q-12 13 -12 30.5t12 29.5q135 135 183 316.5t0 363t-183 316.5q-12 12 -12 29.5t12 30.5l121 121q13 13 30.5 13t29.5 -13q138 -138 210 -317.5t72 -361.5t-72 -361.5t-210 -317.5zM853 171q-18 0 -30 12l-457 457h-323
q-18 0 -30.5 12.5t-12.5 30.5v682q0 18 12.5 30.5t30.5 12.5h323l457 457q21 21 47 9q26 -10 26 -39v-1622q0 -29 -26 -39q-9 -3 -17 -3z" />
<glyph unicode="&#x1f50b;" horiz-adv-x="2048" d="M2048 1237v-426q0 -18 -12.5 -30.5t-30.5 -12.5h-213v-128q0 -53 -37.5 -90.5t-90.5 -37.5h-1536q-53 0 -90.5 37.5t-37.5 90.5v768q0 53 37.5 90.5t90.5 37.5h1536q53 0 90.5 -37.5t37.5 -90.5v-128h213q18 0 30.5 -12.5t12.5 -30.5z" />
<glyph unicode="&#x1f50e;" horiz-adv-x="2048" d="M1280 2048q209 0 385.5 -103t279.5 -279.5t103 -385.5t-103 -385.5t-279.5 -279.5t-385.5 -103q-225 0 -410 119l-578 -581q-52 -50 -121 -50q-71 0 -121 50t-50 121t50 121l581 578q-119 185 -119 410q0 209 103 385.5t279.5 279.5t385.5 103zM1280 768
q104 0 198.5 40.5t163.5 109.5t109.5 163.5t40.5 198.5t-40.5 198.5t-109.5 163.5t-163.5 109.5t-198.5 40.5t-198.5 -40.5t-163.5 -109.5t-109.5 -163.5t-40.5 -198.5t40.5 -198.5t109.5 -163.5t163.5 -109.5t198.5 -40.5z" />
<glyph unicode="&#x1f511;" horiz-adv-x="2048" d="M341 0h-298q-18 0 -30.5 12.5t-12.5 30.5v322q0 19 12 31l794 794q-38 101 -38 218q0 130 51 248.5t136.5 204t204 136.5t248.5 51t248.5 -51t204 -136.5t136.5 -204t51 -248.5t-51 -248.5t-136.5 -204t-204 -136.5t-248.5 -51q-117 0 -218 38l-282 -282q-12 -12 -31 -12
h-237v-213q0 -18 -12.5 -30.5t-30.5 -12.5h-213v-213q0 -18 -12.5 -30.5t-30.5 -12.5zM1536 1728q-80 0 -136 -56t-56 -136t56 -136t136 -56t136 56t56 136t-56 136t-136 56z" />
<glyph unicode="&#x1f512;" horiz-adv-x="2048" d="M1664 1152q53 0 90.5 -37.5t37.5 -90.5v-896q0 -53 -37.5 -90.5t-90.5 -37.5h-1280q-53 0 -90.5 37.5t-37.5 90.5v896q0 53 37.5 90.5t90.5 37.5h128v384q0 104 40.5 198.5t109.5 163.5t163.5 109.5t198.5 40.5t198.5 -40.5t163.5 -109.5t109.5 -163.5t40.5 -198.5v-384
h128zM768 1536v-384h512v384q0 106 -75 181t-181 75t-181 -75t-75 -181z" />
<glyph unicode="&#x1f513;" horiz-adv-x="2048" d="M1792 939v597q0 106 -75 181t-181 75t-181 -75t-75 -181v-384h128q53 0 90.5 -37.5t37.5 -90.5v-896q0 -53 -37.5 -90.5t-90.5 -37.5h-1280q-53 0 -90.5 37.5t-37.5 90.5v896q0 53 37.5 90.5t90.5 37.5h896v384q0 104 40.5 198.5t109.5 163.5t163.5 109.5t198.5 40.5
t198.5 -40.5t163.5 -109.5t109.5 -163.5t40.5 -198.5v-597q0 -18 -12.5 -30.5t-30.5 -12.5h-170q-18 0 -30.5 12.5t-12.5 30.5z" />
<glyph unicode="&#x1f514;" horiz-adv-x="2048" d="M811 213h426q0 -89 -62 -151t-151 -62t-151 62t-62 151zM2046 410q-11 -26 -41 -26h-1962q-30 0 -41 26q-7 31 10 47l372 370v581q0 130 51 248.5t136.5 204t204 136.5t248.5 51t248.5 -51t204 -136.5t136.5 -204t51 -248.5v-581l372 -370q17 -16 10 -47z" />
<glyph unicode="&#x1f515;" horiz-adv-x="2048" d="M811 213h426q0 -89 -62 -151t-151 -62t-151 62t-62 151zM384 1237l853 -853h-1194q-30 0 -41 26q-7 31 10 47l372 370v410zM2012 36q-34 -36 -87 -36q-52 0 -88 36l-1801 1801q-36 35 -36 86.5t36 88.5q35 36 86.5 36t88.5 -36l268 -270q87 141 231 223.5t314 82.5
q130 0 248.5 -51t204 -136.5t136.5 -204t51 -248.5v-581l372 -370q17 -16 10 -47q-11 -26 -41 -26h-168l175 -173q36 -37 36 -88.5t-36 -86.5z" />
<glyph unicode="&#x1f516;" horiz-adv-x="2048" d="M1536 1920v-1877q0 -30 -26 -41q-5 -2 -17 -2q-15 0 -30 12l-439 438l-439 -438q-16 -17 -47 -10q-26 11 -26 41v1877q0 53 37.5 90.5t90.5 37.5h768q53 0 90.5 -37.5t37.5 -90.5z" />
<glyph unicode="&#x1f517;" horiz-adv-x="2048" d="M1884 1100l-289 -289q15 164 -42 317l151 154q87 88 87 211.5t-87 210.5t-210.5 87t-211.5 -87l-320 -317q-87 -89 -87 -212.5t87 -212.5q40 -37 40 -89.5t-40 -90.5q-37 -38 -89.5 -38t-90.5 38q-106 107 -143.5 250t0 286t143.5 249l318 317q107 108 250 146t285.5 0
t248.5 -146q108 -106 146 -248.5t0 -285.5t-146 -250zM1266 481l-320 -320q-106 -106 -249 -144t-286 0t-250 144q-106 107 -144 250t0 286t144 249l292 291q-15 -166 42 -320l-151 -151q-87 -88 -87 -211.5t87 -210.5t210.5 -87t211.5 87l317 317q89 87 89 211t-89 211
q-37 37 -37 91t37 92t91 38t92 -38q106 -107 143.5 -250t0 -286t-143.5 -249z" />
<glyph unicode="&#x1f6ab;" horiz-adv-x="2048" d="M2048 1024q0 -209 -81 -398.5t-218 -326.5t-326.5 -218t-398.5 -81t-398.5 81t-326.5 218t-218 326.5t-81 398.5t81 398.5t218 326.5t326.5 218t398.5 81t398.5 -81t326.5 -218t218 -326.5t81 -398.5zM341 1024q0 -204 107 -365l941 941q-161 107 -365 107
q-185 0 -342.5 -91.5t-249 -249t-91.5 -342.5zM1600 1389l-941 -941q161 -107 365 -107q185 0 342.5 91.5t249 249t91.5 342.5q0 204 -107 365z" />
<glyph   />
<glyph  horiz-adv-x="682"  />
<glyph   />
<glyph unicode="&#xd;"  />
<glyph unicode=" " horiz-adv-x="512"  />
<glyph unicode="A" horiz-adv-x="1375" d="M1344 0h-218l-145 429h-595l-154 -429h-204l555 1479h230zM905 607l-218 654l-237 -654h455z" />
<glyph unicode="B" horiz-adv-x="1375" d="M1287 443q0 -132 -64.5 -234.5t-168.5 -155.5t-227 -53h-680v1479h668q165 0 280 -99t119 -275q0 -100 -50 -187.5t-142 -121.5q117 -41 191 -133.5t74 -219.5zM1017 1062q0 122 -62.5 181t-219.5 63h-384v-455h389q139 0 206 60.5t71 150.5zM1088 417q0 66 -14 111.5
t-50.5 82.5t-105 56t-171.5 20h-396v-519h462q69 0 123 23t85.5 60.5t48 79.5t18.5 86z" />
<glyph unicode="C" horiz-adv-x="1489" d="M1403 543q-11 -96 -44.5 -183t-89 -160t-128 -126.5t-167 -83.5t-201.5 -30q-150 0 -270.5 49t-196.5 127.5t-127.5 184t-72.5 212t-21 218.5q0 116 27 225t82.5 206t135 170.5t191 118t242.5 48.5q57 0 115.5 -9t125.5 -28.5t127.5 -57t113 -89t90.5 -129.5t52 -173
h-195q-29 147 -137.5 225.5t-262.5 78.5q-105 0 -189 -31t-140.5 -84t-94 -128.5t-55 -160t-19.5 -182.5q2 -91 19 -177t53 -166t87.5 -139.5t128 -95.5t169.5 -36q193 0 310 107t146 299h196z" />
<glyph unicode="D" horiz-adv-x="1489" d="M1384 792q0 -125 -24.5 -240.5t-74 -215t-119 -173.5t-166 -117.5t-208.5 -45.5h-628v1479h621q77 0 155.5 -22t157.5 -74.5t140 -129t101.5 -196t44.5 -265.5zM1178 775q0 85 -13.5 160.5t-45.5 144t-79.5 118t-120 79t-163.5 29.5h-389v-1138h413q119 0 210.5 81
t139.5 218t48 308z" />
<glyph unicode="E" horiz-adv-x="1375" d="M1266 0h-1093v1479h1081v-180h-879v-450h810v-178h-810v-493h891v-178z" />
<glyph unicode="F" horiz-adv-x="1256" d="M1197 1299h-822v-450h725v-178h-725v-671h-202v1479h1024v-180z" />
<glyph unicode="G" horiz-adv-x="1598" d="M1446 0h-128l-47 197q-70 -98 -200 -161.5t-286 -68.5q-146 0 -262 39t-195 108.5t-131.5 168.5t-76 215t-23.5 253q0 112 26.5 219.5t83.5 205t137.5 171t197 118t254.5 45.5q113 0 217.5 -31t190.5 -90t144.5 -152t73.5 -208h-192q-27 109 -95 180t-154 99.5t-194 28.5
q-212 0 -349 -161.5t-137 -435.5q0 -295 134 -454.5t352 -159.5q173 0 310 106q91 74 125.5 158.5t38.5 225.5h-460v171h645v-787z" />
<glyph unicode="H" horiz-adv-x="1489" d="M1332 0h-201v687h-773v-687h-202v1479h202v-614h773v614h201v-1479z" />
<glyph unicode="I" horiz-adv-x="569" d="M386 0h-201v1479h201v-1479z" />
<glyph unicode="J" horiz-adv-x="1029" d="M882 398q0 -117 -33.5 -203t-93.5 -136t-134.5 -73.5t-165.5 -25.5q-93 0 -167 23t-121 60t-78 86.5t-43.5 99t-12.5 100.5v145h187v-104q0 -123 54.5 -181.5t168.5 -58.5q122 0 177.5 62t57.5 194v1093h204v-1081z" />
<glyph unicode="K" horiz-adv-x="1375" d="M1363 0h-258l-520 740l-232 -221v-519h-201v1479h201v-720l718 720h275l-616 -597z" />
<glyph unicode="L" horiz-adv-x="1147" d="M1105 0h-953v1479h201v-1301h752v-178z" />
<glyph unicode="M" horiz-adv-x="1711" d="M1567 0h-197v1242l-412 -1242h-199l-422 1240v-1240h-190v1479h287l426 -1254l422 1254h285v-1479z" />
<glyph unicode="N" horiz-adv-x="1489" d="M1332 0h-227l-754 1192v-1192h-195v1479h237l745 -1197v1197h194v-1479z" />
<glyph unicode="O" horiz-adv-x="1598" d="M1519 740q0 -56 -5.5 -112t-23.5 -134.5t-48 -146.5t-85 -138.5t-127.5 -121t-182.5 -83.5t-243 -35q-145 0 -265.5 43t-203 116.5t-140 172.5t-84 209.5t-26.5 229.5q0 124 27 236t85 209t141.5 168.5t202.5 113t263 43.5q113 0 211 -25.5t169.5 -69.5t129.5 -105
t95.5 -129.5t63 -145t36 -149.5t10.5 -146zM1318 740q0 264 -136.5 426t-377.5 166q-230 0 -372.5 -160.5t-142.5 -431.5q0 -267 138 -428t377 -165q241 0 377.5 162.5t136.5 430.5z" />
<glyph unicode="P" horiz-adv-x="1375" d="M1278 1062q0 -66 -14 -126t-47 -117t-82.5 -99t-125.5 -68.5t-170 -28.5h-464v-623h-202v1479h666q188 0 311 -109t128 -308zM1071 1062q0 244 -291 244h-405v-514h398q295 0 298 270z" />
<glyph unicode="Q" horiz-adv-x="1598" d="M1519 740q0 -358 -215 -569l201 -157l-97 -121l-228 178q-155 -102 -379 -102q-145 0 -265.5 43t-203.5 116.5t-140.5 172.5t-84 209.5t-26.5 229.5q0 124 27 236t85 209t141.5 168.5t203 113t263.5 43.5q113 0 210.5 -25.5t169.5 -69.5t130 -105t96.5 -129.5t64 -145
t36.5 -149.5t11 -146zM1313 740q0 264 -135.5 426t-376.5 166q-231 0 -372.5 -160t-141.5 -432q0 -268 137 -428.5t377 -164.5q119 0 216 47l-154 117l102 125l189 -144q159 165 159 448z" />
<glyph unicode="R" horiz-adv-x="1489" d="M1384 0h-225q-26 57 -37.5 150t-15 186.5t-6.5 113.5q-26 178 -242 181h-502v-631h-202v1479h709q89 0 169 -24t146 -71.5t106 -128t43 -184.5q0 -230 -215 -343q79 -25 126 -87t56 -153q6 -56 12.5 -157t14.5 -165.5t25 -106.5q18 -42 38 -59zM1124 1052
q0 112 -58.5 181t-186.5 73h-523v-502h507q112 0 186.5 69t74.5 179z" />
<glyph unicode="S" horiz-adv-x="1375" d="M1273 415q0 -145 -76.5 -247.5t-204.5 -150.5t-297 -48q-284 0 -438 127t-155 392h185q0 -78 24 -139t62.5 -98.5t93.5 -62.5t109.5 -35.5t118.5 -12.5q59 0 112 7.5t104 25.5t88 45.5t59.5 71t22.5 99.5q0 39 -8.5 69.5t-24.5 54t-44.5 42.5t-64 34t-88 29.5t-110.5 28
t-138 31.5q-36 8 -55 12q-67 15 -119.5 32.5t-106.5 47.5t-90 67.5t-59.5 94t-25.5 125.5q0 92 30 171.5t90 143.5t161 101t231 37q111 0 201.5 -21t148 -51t101.5 -77.5t65.5 -84.5t36 -89.5t17 -75.5t5.5 -58q1 -9 1 -12h-185q0 63 -21.5 114t-57 84.5t-85 56.5
t-100.5 33.5t-108 12.5q-51 0 -96 -6.5t-90.5 -24.5t-77.5 -46.5t-52.5 -75.5t-20.5 -108q0 -141 178 -180l422 -97q332 -74 332 -389z" />
<glyph unicode="T" horiz-adv-x="1256" d="M1230 1299h-502v-1299h-202v1299h-498v180h1202v-180z" />
<glyph unicode="U" horiz-adv-x="1489" d="M1327 486q0 -105 -35.5 -195.5t-106 -162t-187 -113.5t-268.5 -43q-282 0 -423.5 130.5t-145.5 373.5v1003h202v-965q0 -171 95 -269t272 -98q180 0 285.5 94.5t110.5 268.5v969h201v-993z" />
<glyph unicode="V" horiz-adv-x="1375" d="M1330 1479l-538 -1479h-214l-538 1479h233l419 -1263l436 1263h202z" />
<glyph unicode="W" horiz-adv-x="1941" d="M1911 1479l-392 -1479h-208l-337 1225l-346 -1225h-211l-384 1479h216l272 -1206l339 1206h216l339 -1206l273 1206h223z" />
<glyph unicode="X" horiz-adv-x="1375" d="M1332 0h-249l-396 607l-410 -607h-239l529 759l-498 720h251l375 -566l376 566h240l-496 -723z" />
<glyph unicode="Y" horiz-adv-x="1375" d="M1342 1479l-557 -889v-590h-200v590l-554 889h242l422 -711l424 711h223z" />
<glyph unicode="Z" horiz-adv-x="1256" d="M1209 0h-1162v164l906 1137h-839v178h1095v-173l-910 -1126h910v-180z" />
<glyph unicode="a" horiz-adv-x="1147" d="M1093 2v-2q-57 -21 -119 -21q-168 0 -173 161q-154 -166 -389 -173q-151 0 -246 89t-95 214q0 60 15.5 109t39.5 82.5t64 60.5t76.5 42.5t91 29.5t93.5 20.5t98 16.5t91 16q82 14 117 50.5t35 79.5q0 83 -63.5 133t-185.5 50q-110 0 -176.5 -53t-70.5 -160h-168
q0 147 111.5 250.5t327.5 107.5q106 0 195.5 -32.5t150.5 -106.5t61 -179v-576q0 -60 22.5 -82t96.5 4v-131zM787 358v194q-29 -19 -84 -34t-111.5 -23.5t-117.5 -25t-108 -37.5t-77.5 -62t-30.5 -97q0 -78 52 -118.5t140 -40.5q51 0 109 17t109.5 47t85 77.5t33.5 102.5z
" />
<glyph unicode="b" horiz-adv-x="1147" d="M1088 569q3 -85 -10.5 -166.5t-48 -161.5t-88 -140t-138.5 -97t-191 -37q-104 0 -187.5 42.5t-130.5 123.5l-14 -133h-164v1479h185v-538q59 78 138.5 119t191.5 45q197 0 323.5 -149.5t133.5 -386.5zM898 538q0 198 -79 301.5t-222 103.5q-82 0 -143.5 -38.5t-95 -100.5
t-49 -128.5t-15.5 -135.5q0 -404 313 -414q140 0 215.5 112.5t75.5 299.5z" />
<glyph unicode="c" horiz-adv-x="1029" d="M991 379q-12 -111 -57 -194t-111 -129t-138 -67.5t-149 -21.5q-203 0 -340 158.5t-137 412.5q0 140 39.5 251t107 179t153.5 103.5t184 35.5q62 0 119.5 -11.5t114.5 -40t100.5 -71.5t74.5 -112t39 -156h-173q-10 106 -83.5 166.5t-184.5 60.5q-63 0 -114.5 -21t-94 -66
t-66.5 -126t-24 -192q0 -170 85 -287.5t214 -117.5q109 0 176.5 62t88.5 184h176z" />
<glyph unicode="d" horiz-adv-x="1147" d="M64 569q7 237 133.5 386.5t323.5 149.5q113 -4 191.5 -45t138.5 -119v538h185v-1479h-164v152q-48 -82 -139.5 -133.5t-192.5 -51.5q-106 0 -191 37t-138.5 97t-88 140t-48 161.5t-10.5 166.5zM254 538q0 -187 75.5 -299.5t215.5 -112.5q313 10 313 414q0 69 -15.5 135.5
t-48.5 128.5t-94.5 100.5t-144.5 38.5q-143 0 -222 -103.5t-79 -301.5z" />
<glyph unicode="e" horiz-adv-x="1147" d="M1074 476h-804q0 -150 91.5 -246.5t226.5 -96.5q68 0 125 22t91 54.5t52.5 66.5t18.5 61h185q-30 -172 -161 -270t-321 -98q-114 0 -209 42.5t-157 116t-97 171t-37 208.5q0 270 139.5 436t365.5 166q160 0 273.5 -81.5t168 -223.5t49.5 -328zM884 623q0 144 -87 234.5
t-212 90.5q-128 0 -219 -95.5t-96 -229.5h614z" />
<glyph unicode="f" horiz-adv-x="569" d="M538 1493v-149q-31 5 -76 5q-54 0 -76.5 -25t-22.5 -84v-164h175v-163h-175v-913h-185v913h-150v163h150v199q0 98 73.5 164t191.5 66q55 0 95 -12z" />
<glyph unicode="g" horiz-adv-x="1228" d="M1086 47q0 -262 -128 -390.5t-358 -128.5q-33 0 -66 3t-75 12.5t-79.5 24.5t-74.5 41.5t-63.5 61t-43.5 85t-18 111.5h180q0 -80 68 -125t160 -45q150 0 233.5 83t83.5 253v64q-65 -70 -145.5 -99t-183.5 -29q-84 0 -166.5 36.5t-151 103t-112 171.5t-46.5 230
q0 277 139.5 436t362.5 159q98 0 180 -42t123 -110v130h181v-1036zM905 536q0 180 -82.5 283t-227.5 103q-56 0 -109 -23t-97 -67t-70.5 -116.5t-26.5 -163.5q0 -106 26.5 -189.5t71.5 -132.5t99 -74.5t113 -25.5q132 0 216 107.5t87 298.5z" />
<glyph unicode="h" horiz-adv-x="1147" d="M1012 0h-185v704q0 117 -50 178t-161 61q-61 0 -113.5 -21t-96 -62.5t-68.5 -112t-25 -162.5v-585h-185v1479h185v-547q55 85 147 128t187 47q55 0 104 -10.5t98 -38t84 -70.5t57 -112.5t22 -159.5v-716z" />
<glyph unicode="i" horiz-adv-x="460" d="M318 1271h-185v203h185v-203zM318 0h-185v1076h185v-1076z" />
<glyph unicode="j" horiz-adv-x="543" d="M405 -185q0 -106 -70 -175t-200 -69q-59 0 -92 7v157q41 -10 83 -10q51 0 72.5 29t21.5 101v1221h185v-1261zM405 1271h-185v208h185v-208z" />
<glyph unicode="k" horiz-adv-x="1029" d="M1029 0h-230l-356 526l-130 -128v-398h-185v1479h185v-860l460 457h232l-429 -412z" />
<glyph unicode="l" horiz-adv-x="460" d="M320 0h-187v1479h187v-1479z" />
<glyph unicode="m" horiz-adv-x="1711" d="M1586 0h-185v695q0 248 -199 248q-108 0 -177 -78t-74 -211v-654h-185v742q0 84 -42 142.5t-131 58.5q-53 0 -99.5 -18.5t-87 -58t-65 -112t-26.5 -169.5v-585h-185v1076h171v-152q57 89 144 135t186 46q113 0 179.5 -46t109.5 -127q46 72 131 122.5t198 50.5
q42 0 84 -8.5t89 -33.5t82 -63.5t58.5 -105t23.5 -152.5v-742z" />
<glyph unicode="n" horiz-adv-x="1147" d="M1012 0h-185v673q0 61 -10 107.5t-33 84.5t-65.5 58t-102.5 20q-130 0 -216.5 -88.5t-86.5 -240.5v-614h-185v1076h175v-156q15 24 43.5 52.5t72 60t104 52t124.5 20.5q166 0 265.5 -96t99.5 -293v-716z" />
<glyph unicode="o" horiz-adv-x="1147" d="M1081 538q0 -112 -34.5 -213t-97.5 -179.5t-159.5 -126t-213.5 -50.5q-94 0 -175 30.5t-140.5 84t-102 125t-64 155.5t-21.5 174q0 155 58 283t174 207t271 79t271.5 -79t175 -207t58.5 -283zM891 538q1 68 -16.5 136t-53.5 129.5t-100 101t-145 41.5q-80 0 -143 -39
t-98.5 -101.5t-53.5 -131t-18 -136.5q0 -81 18 -152.5t54 -130.5t98 -93t143 -34q82 0 143.5 34t97 93.5t53.5 129.5t21 153z" />
<glyph unicode="p" horiz-adv-x="1147" d="M1090 507q-7 -237 -134 -386t-325 -149q-112 3 -190 44t-138 119v-562h-187v1503h166v-152q48 82 139.5 133.5t192.5 51.5q106 0 191 -37t138.5 -97t88.5 -140t48 -161.5t10 -166.5zM901 538q0 187 -76 300t-216 113q-160 -6 -236.5 -114t-76.5 -301q0 -69 15.5 -135
t48.5 -128.5t95 -101t145 -38.5q143 0 222 103.5t79 301.5z" />
<glyph unicode="q" horiz-adv-x="1147" d="M45 507q0 85 14 166t48.5 161.5t87 140t136.5 97t190 37.5q103 0 186 -42.5t130 -123.5l16 133h166v-1503h-185v562q-62 -78 -140 -119t-189 -44q-201 0 -328 143.5t-132 391.5zM235 538q0 -198 80 -301.5t223 -103.5q66 0 119 26t86.5 67t55.5 95.5t31 107.5t9 107
q0 404 -313 415q-140 0 -215.5 -113t-75.5 -300z" />
<glyph unicode="r" horiz-adv-x="683" d="M609 913q-154 0 -250 -71.5t-96 -196.5v-645h-185v1076h178v-182q94 206 353 206v-187z" />
<glyph unicode="s" horiz-adv-x="1029" d="M960 325q0 -155 -113.5 -256.5t-310.5 -101.5q-97 0 -176 20.5t-142.5 64.5t-101.5 118.5t-45 175.5h178q0 -220 287 -220q101 0 172.5 43t71.5 125q0 44 -23 70t-102 55t-247 69q-48 12 -81.5 22.5t-78 32.5t-72 49t-47.5 71.5t-20 99.5q0 163 114.5 253.5t293.5 90.5
q99 0 175.5 -26t118.5 -63t69.5 -86.5t36 -87.5t10.5 -76h-176q0 88 -64 134t-189 46q-15 0 -30 -1t-42 -5.5t-49 -14.5t-44.5 -26t-35.5 -43t-15 -62q0 -66 62.5 -95.5t267.5 -78.5q23 -5 35 -8q55 -15 95.5 -30t83.5 -39t70 -53t45 -71.5t19 -95.5z" />
<glyph unicode="t" horiz-adv-x="569" d="M538 128v-152q-57 -12 -95 -12q-118 0 -191.5 67t-73.5 163v719h-140v163h140v304h185v-304h175v-163h-175v-681q0 -59 22.5 -85t76.5 -26q33 0 76 7z" />
<glyph unicode="u" horiz-adv-x="1147" d="M116 1076h187v-673q0 -61 10 -107.5t33 -84.5t65.5 -58t102.5 -20q129 0 216.5 89t87.5 240v614h185v-1076h-178v156q-14 -24 -43 -52.5t-72 -59.5t-104 -51.5t-125 -20.5q-166 0 -265.5 95.5t-99.5 292.5v716z" />
<glyph unicode="v" horiz-adv-x="1029" d="M988 1076l-410 -1076h-194l-391 1076h206l294 -882l301 882h194z" />
<glyph unicode="w" horiz-adv-x="1489" d="M1458 1076l-311 -1076h-189l-216 832l-216 -832h-189l-309 1076h197l204 -848l220 848h202l211 -848l216 848h180z" />
<glyph unicode="x" horiz-adv-x="1029" d="M1007 0h-232l-265 405l-261 -405h-228l380 555l-361 521h233l248 -381l252 381h218l-363 -524z" />
<glyph unicode="y" horiz-adv-x="1029" d="M1007 1076q-166 -472 -314.5 -865.5t-182.5 -461.5q-66 -133 -149 -171.5t-235 -4.5v166q35 -13 63.5 -18.5t60 -3t58 22t45.5 56.5l74 171l-403 1109h204l293 -879l292 879h194z" />
<glyph unicode="z" horiz-adv-x="1029" d="M965 0h-901v140l647 784h-597v152h829v-149l-642 -780h664v-147z" />
<glyph unicode="&#xe7b7;" horiz-adv-x="2048" d="M1920 768q53 0 90.5 -37.5t37.5 -90.5v-512q0 -53 -37.5 -90.5t-90.5 -37.5h-1792q-53 0 -90.5 37.5t-37.5 90.5v512q0 53 37.5 90.5t90.5 37.5h1792zM1152 256q53 0 90.5 37.5t37.5 90.5t-37.5 90.5t-90.5 37.5t-90.5 -37.5t-37.5 -90.5t37.5 -90.5t90.5 -37.5z
M1664 256q53 0 90.5 37.5t37.5 90.5t-37.5 90.5t-90.5 37.5t-90.5 -37.5t-37.5 -90.5t37.5 -90.5t90.5 -37.5zM1875 1939l152 -1019q-54 19 -107 19h-1792q-53 0 -107 -19l152 1019q5 46 41.5 77.5t84.5 31.5h554v-261h-320q-29 0 -40 -26q-9 -28 10 -47l521 -519l521 519
q19 19 10 47q-11 26 -40 26h-320v261h554q48 0 83 -31t43 -78z" />
</font>
</defs>
</svg>
